  0
SECTION
  2
HEADER
  9
$ACADVER
  1
AC1015
  9
$ACADMAINTVER
 70
     6
  9
$DWGCODEPAGE
  3
ANSI_1252
  9
$INSBASE
 10
0.0
 20
0.0
 30
0.0
  9
$EXTMIN
 10
-1725.701402105549
 20
738.1925014954597
 30
0.0
  9
$EXTMAX
 10
-1170.701402105549
 20
1139.19250149546
 30
0.0
  9
$LIMMIN
 10
0.0
 20
0.0
  9
$LIMMAX
 10
12.0
 20
9.0
  9
$ORTHOMODE
 70
     0
  9
$REGENMODE
 70
     1
  9
$FILLMODE
 70
     1
  9
$QTEXTMODE
 70
     0
  9
$MIRRTEXT
 70
     1
  9
$LTSCALE
 40
1.0
  9
$ATTMODE
 70
     1
  9
$TEXTSIZE
 40
0.2
  9
$TRACEWID
 40
0.05
  9
$TEXTSTYLE
  7
Standard
  9
$CLAYER
  8
0
  9
$CELTYPE
  6
ByLayer
  9
$CECOLOR
 62
   256
  9
$CELTSCALE
 40
1.0
  9
$DISPSILH
 70
     0
  9
$DIMSCALE
 40
1.0
  9
$DIMASZ
 40
0.18
  9
$DIMEXO
 40
0.0625
  9
$DIMDLI
 40
0.38
  9
$DIMRND
 40
0.0
  9
$DIMDLE
 40
0.0
  9
$DIMEXE
 40
0.18
  9
$DIMTP
 40
0.0
  9
$DIMTM
 40
0.0
  9
$DIMTXT
 40
0.18
  9
$DIMCEN
 40
0.09
  9
$DIMTSZ
 40
0.0
  9
$DIMTOL
 70
     0
  9
$DIMLIM
 70
     0
  9
$DIMTIH
 70
     1
  9
$DIMTOH
 70
     1
  9
$DIMSE1
 70
     0
  9
$DIMSE2
 70
     0
  9
$DIMTAD
 70
     0
  9
$DIMZIN
 70
     0
  9
$DIMBLK
  1

  9
$DIMASO
 70
     1
  9
$DIMSHO
 70
     1
  9
$DIMPOST
  1

  9
$DIMAPOST
  1

  9
$DIMALT
 70
     0
  9
$DIMALTD
 70
     2
  9
$DIMALTF
 40
25.4
  9
$DIMLFAC
 40
1.0
  9
$DIMTOFL
 70
     0
  9
$DIMTVP
 40
0.0
  9
$DIMTIX
 70
     0
  9
$DIMSOXD
 70
     0
  9
$DIMSAH
 70
     0
  9
$DIMBLK1
  1

  9
$DIMBLK2
  1

  9
$DIMSTYLE
  2
Standard
  9
$DIMCLRD
 70
     0
  9
$DIMCLRE
 70
     0
  9
$DIMCLRT
 70
     0
  9
$DIMTFAC
 40
1.0
  9
$DIMGAP
 40
0.09
  9
$DIMJUST
 70
     0
  9
$DIMSD1
 70
     0
  9
$DIMSD2
 70
     0
  9
$DIMTOLJ
 70
     1
  9
$DIMTZIN
 70
     0
  9
$DIMALTZ
 70
     0
  9
$DIMALTTZ
 70
     0
  9
$DIMUPT
 70
     0
  9
$DIMDEC
 70
     4
  9
$DIMTDEC
 70
     4
  9
$DIMALTU
 70
     2
  9
$DIMALTTD
 70
     2
  9
$DIMTXSTY
  7
Standard
  9
$DIMAUNIT
 70
     0
  9
$DIMADEC
 70
     0
  9
$DIMALTRND
 40
0.0
  9
$DIMAZIN
 70
     0
  9
$DIMDSEP
 70
    46
  9
$DIMATFIT
 70
     3
  9
$DIMFRAC
 70
     0
  9
$DIMLDRBLK
  1

  9
$DIMLUNIT
 70
     2
  9
$DIMLWD
 70
    -2
  9
$DIMLWE
 70
    -2
  9
$DIMTMOVE
 70
     0
  9
$LUNITS
 70
     2
  9
$LUPREC
 70
     4
  9
$SKETCHINC
 40
0.1
  9
$FILLETRAD
 40
0.5
  9
$AUNITS
 70
     0
  9
$AUPREC
 70
     0
  9
$MENU
  1
.
  9
$ELEVATION
 40
0.0
  9
$PELEVATION
 40
0.0
  9
$THICKNESS
 40
0.0
  9
$LIMCHECK
 70
     0
  9
$CHAMFERA
 40
0.5
  9
$CHAMFERB
 40
0.5
  9
$CHAMFERC
 40
1.0
  9
$CHAMFERD
 40
0.0
  9
$SKPOLY
 70
     0
  9
$TDCREATE
 40
2456238.436995718
  9
$TDUCREATE
 40
2456238.395329051
  9
$TDUPDATE
 40
2456238.436995729
  9
$TDUUPDATE
 40
2456238.395329062
  9
$TDINDWG
 40
0.0000000116
  9
$TDUSRTIMER
 40
0.0000000116
  9
$USRTIMER
 70
     1
  9
$ANGBASE
 50
0.0
  9
$ANGDIR
 70
     0
  9
$PDMODE
 70
     0
  9
$PDSIZE
 40
0.0
  9
$PLINEWID
 40
0.0
  9
$SPLFRAME
 70
     0
  9
$SPLINETYPE
 70
     6
  9
$SPLINESEGS
 70
     8
  9
$HANDSEED
  5
27C
  9
$SURFTAB1
 70
     6
  9
$SURFTAB2
 70
     6
  9
$SURFTYPE
 70
     6
  9
$SURFU
 70
     6
  9
$SURFV
 70
     6
  9
$UCSBASE
  2

  9
$UCSNAME
  2

  9
$UCSORG
 10
0.0
 20
0.0
 30
0.0
  9
$UCSXDIR
 10
1.0
 20
0.0
 30
0.0
  9
$UCSYDIR
 10
0.0
 20
1.0
 30
0.0
  9
$UCSORTHOREF
  2

  9
$UCSORTHOVIEW
 70
     0
  9
$UCSORGTOP
 10
0.0
 20
0.0
 30
0.0
  9
$UCSORGBOTTOM
 10
0.0
 20
0.0
 30
0.0
  9
$UCSORGLEFT
 10
0.0
 20
0.0
 30
0.0
  9
$UCSORGRIGHT
 10
0.0
 20
0.0
 30
0.0
  9
$UCSORGFRONT
 10
0.0
 20
0.0
 30
0.0
  9
$UCSORGBACK
 10
0.0
 20
0.0
 30
0.0
  9
$PUCSBASE
  2

  9
$PUCSNAME
  2

  9
$PUCSORG
 10
0.0
 20
0.0
 30
0.0
  9
$PUCSXDIR
 10
1.0
 20
0.0
 30
0.0
  9
$PUCSYDIR
 10
0.0
 20
1.0
 30
0.0
  9
$PUCSORTHOREF
  2

  9
$PUCSORTHOVIEW
 70
     0
  9
$PUCSORGTOP
 10
0.0
 20
0.0
 30
0.0
  9
$PUCSORGBOTTOM
 10
0.0
 20
0.0
 30
0.0
  9
$PUCSORGLEFT
 10
0.0
 20
0.0
 30
0.0
  9
$PUCSORGRIGHT
 10
0.0
 20
0.0
 30
0.0
  9
$PUCSORGFRONT
 10
0.0
 20
0.0
 30
0.0
  9
$PUCSORGBACK
 10
0.0
 20
0.0
 30
0.0
  9
$USERI1
 70
     0
  9
$USERI2
 70
     0
  9
$USERI3
 70
     0
  9
$USERI4
 70
     0
  9
$USERI5
 70
     0
  9
$USERR1
 40
18.0
  9
$USERR2
 40
0.0
  9
$USERR3
 40
0.0
  9
$USERR4
 40
0.0
  9
$USERR5
 40
0.0
  9
$WORLDVIEW
 70
     1
  9
$SHADEDGE
 70
     3
  9
$SHADEDIF
 70
    70
  9
$TILEMODE
 70
     1
  9
$MAXACTVP
 70
    64
  9
$PINSBASE
 10
0.0
 20
0.0
 30
0.0
  9
$PLIMCHECK
 70
     0
  9
$PEXTMIN
 10
1.00000000000000E+20
 20
1.00000000000000E+20
 30
1.00000000000000E+20
  9
$PEXTMAX
 10
-1.00000000000000E+20
 20
-1.00000000000000E+20
 30
-1.00000000000000E+20
  9
$PLIMMIN
 10
0.0
 20
0.0
  9
$PLIMMAX
 10
12.0
 20
9.0
  9
$UNITMODE
 70
     0
  9
$VISRETAIN
 70
     1
  9
$PLINEGEN
 70
     0
  9
$PSLTSCALE
 70
     1
  9
$TREEDEPTH
 70
  3020
  9
$CMLSTYLE
  2
Standard
  9
$CMLJUST
 70
     0
  9
$CMLSCALE
 40
1.0
  9
$PROXYGRAPHICS
 70
     1
  9
$MEASUREMENT
 70
     1
  9
$CELWEIGHT
370
    -1
  9
$ENDCAPS
280
     0
  9
$JOINSTYLE
280
     0
  9
$LWDISPLAY
290
     0
  9
$INSUNITS
 70
     1
  9
$HYPERLINKBASE
  1

  9
$STYLESHEET
  1

  9
$XEDIT
290
     1
  9
$CEPSNTYPE
380
     0
  9
$PSTYLEMODE
290
     1
  9
$FINGERPRINTGUID
  2
{17BDE577-3B52-4920-84E6-52FC2318A393}
  9
$VERSIONGUID
  2
{FAEB1C32-E019-11D5-929B-00C0DF256EC4}
  9
$EXTNAMES
290
     1
  9
$PSVPSCALE
 40
0.0
  9
$OLESTARTUP
290
     0
  0
ENDSEC
  0
SECTION
  2
CLASSES
  0
CLASS
  1
ACDBDICTIONARYWDFLT
  2
AcDbDictionaryWithDefault
  3
ObjectDBX Classes
 90
        0
280
     0
281
     0
  0
CLASS
  1
VISUALSTYLE
  2
AcDbVisualStyle
  3
ObjectDBX Classes
 90
     4095
280
     0
281
     0
  0
CLASS
  1
MATERIAL
  2
AcDbMaterial
  3
ObjectDBX Classes
 90
     1153
280
     0
281
     0
  0
CLASS
  1
SCALE
  2
AcDbScale
  3
ObjectDBX Classes
 90
     1153
280
     0
281
     0
  0
CLASS
  1

  2
exOdDbPolyline
  3

 90
        0
280
     0
281
     1
  0
CLASS
  1

  2
exOdDbCircle
  3

 90
        0
280
     0
281
     1
  0
CLASS
  1

  2
exOdDbSpline
  3

 90
        0
280
     0
281
     1
  0
CLASS
  1
DICTIONARYVAR
  2
AcDbDictionaryVar
  3
ObjectDBX Classes
 90
        0
280
     0
281
     0
  0
CLASS
  1
ACDBPLACEHOLDER
  2
AcDbPlaceHolder
  3
ObjectDBX Classes
 90
        0
280
     0
281
     0
  0
CLASS
  1
LAYOUT
  2
AcDbLayout
  3
ObjectDBX Classes
 90
        0
280
     0
281
     0
  0
ENDSEC
  0
SECTION
  2
TABLES
  0
TABLE
  2
VPORT
  5
8
330
0
100
AcDbSymbolTable
 70
     1
  0
VPORT
  5
29
330
8
100
AcDbSymbolTableRecord
100
AcDbViewportTableRecord
  2
*Active
 70
     0
 10
0.0
 20
0.0
 11
1.0
 21
1.0
 12
-1448.201402105549
 22
938.6925014954599
 13
0.0
 23
0.0
 14
0.5
 24
0.5
 15
0.5
 25
0.5
 16
0.0
 26
0.0
 36
1.0
 17
0.0
 27
0.0
 37
0.0
 40
441.1000000000003
 41
1.60267857142857
 42
50.0
 43
0.0
 44
0.0
 50
0.0
 51
0.0
 71
     0
 72
   100
 73
     1
 74
     3
 75
     0
 76
     0
 77
     0
 78
     0
281
     0
 65
     1
110
0.0
120
0.0
130
0.0
111
1.0
121
0.0
131
0.0
112
0.0
122
1.0
132
0.0
 79
     0
146
0.0
  0
ENDTAB
  0
TABLE
  2
LTYPE
  5
5
330
0
100
AcDbSymbolTable
 70
     8
  0
LTYPE
  5
14
330
5
100
AcDbSymbolTableRecord
100
AcDbLinetypeTableRecord
  2
ByBlock
 70
     0
  3

 72
    65
 73
     0
 40
0.0
  0
LTYPE
  5
15
330
5
100
AcDbSymbolTableRecord
100
AcDbLinetypeTableRecord
  2
ByLayer
 70
     0
  3

 72
    65
 73
     0
 40
0.0
  0
LTYPE
  5
16
330
5
100
AcDbSymbolTableRecord
100
AcDbLinetypeTableRecord
  2
Continuous
 70
     0
  3
Solid line
 72
    65
 73
     0
 40
0.0
  0
LTYPE
  5
3F
330
5
100
AcDbSymbolTableRecord
100
AcDbLinetypeTableRecord
  2
DASHED
 70
     0
  3
Dashed
 72
    65
 73
     2
 40
15.0
 49
7.0
 74
     0
 49
-8.0
 74
     0
  0
LTYPE
  5
40
330
5
100
AcDbSymbolTableRecord
100
AcDbLinetypeTableRecord
  2
DOTTED
 70
     0
  3
Dotted
 72
    65
 73
     2
 40
1.0
 49
0.0
 74
     0
 49
-1.0
 74
     0
  0
LTYPE
  5
41
330
5
100
AcDbSymbolTableRecord
100
AcDbLinetypeTableRecord
  2
DOT_CENTER
 70
     0
  3
Dot_Center
 72
    65
 73
     4
 40
14.0
 49
12.0
 74
     0
 49
-1.0
 74
     0
 49
0.0
 74
     0
 49
-1.0
 74
     0
  0
LTYPE
  5
42
330
5
100
AcDbSymbolTableRecord
100
AcDbLinetypeTableRecord
  2
LONG_DASHED
 70
     0
  3
Long_Dashed
 72
    65
 73
     2
 40
15.0
 49
10.0
 74
     0
 49
-5.0
 74
     0
  0
LTYPE
  5
43
330
5
100
AcDbSymbolTableRecord
100
AcDbLinetypeTableRecord
  2
DASH_CENTER
 70
     0
  3
Dash_Center
 72
    65
 73
     4
 40
14.0
 49
11.0
 74
     0
 49
-1.0
 74
     0
 49
1.0
 74
     0
 49
-1.0
 74
     0
  0
LTYPE
  5
44
330
5
100
AcDbSymbolTableRecord
100
AcDbLinetypeTableRecord
  2
PHANTOM
 70
     0
  3
Phantom
 72
    65
 73
     6
 40
13.0
 49
10.0
 74
     0
 49
-1.0
 74
     0
 49
0.0
 74
     0
 49
-1.0
 74
     0
 49
0.0
 74
     0
 49
-1.0
 74
     0
  0
LTYPE
  5
45
330
5
100
AcDbSymbolTableRecord
100
AcDbLinetypeTableRecord
  2
CENTER_DASH_DASH
 70
     0
  3
Center_Dash_Dash
 72
    65
 73
     6
 40
14.0
 49
9.0
 74
     0
 49
-1.0
 74
     0
 49
1.0
 74
     0
 49
-1.0
 74
     0
 49
1.0
 74
     0
 49
-1.0
 74
     0
  0
ENDTAB
  0
TABLE
  2
LAYER
  5
2
330
0
100
AcDbSymbolTable
 70
     5
  0
LAYER
  5
10
330
2
100
AcDbSymbolTableRecord
100
AcDbLayerTableRecord
  2
0
 70
     0
 62
     7
  6
Continuous
370
    -3
390
F
  0
LAYER
  5
46
330
2
100
AcDbSymbolTableRecord
100
AcDbLayerTableRecord
  2
1
 70
     0
 62
     7
  6
Continuous
370
    -3
390
F
  0
LAYER
  5
47
330
2
100
AcDbSymbolTableRecord
100
AcDbLayerTableRecord
  2
Schraffur
 70
     0
 62
     7
  6
Continuous
370
    -3
390
F
  0
LAYER
  5
48
330
2
100
AcDbSymbolTableRecord
100
AcDbLayerTableRecord
  2
Skizziergeometrie_ISO_
 70
     0
 62
     7
  6
Continuous
370
    -3
390
F
  0
LAYER
  5
49
330
2
100
AcDbSymbolTableRecord
100
AcDbLayerTableRecord
  2
Symbole_ISO_
 70
     0
 62
     7
  6
Continuous
370
    -3
390
F
  0
ENDTAB
  0
TABLE
  2
STYLE
  5
3
330
0
100
AcDbSymbolTable
 70
     6
  0
STYLE
  5
11
330
3
100
AcDbSymbolTableRecord
100
AcDbTextStyleTableRecord
  2
Standard
 70
     0
 40
0.0
 41
1.0
 50
0.0
 71
     0
 42
0.2
  3
txt
  4

  0
STYLE
  5
75
330
3
100
AcDbSymbolTableRecord
100
AcDbTextStyleTableRecord
  2
CONVERTER_11
 70
     0
 40
0.0
 41
0.67499998211861
 50
0.0
 71
     0
 42
0.2
  3
txt.shx
  4

  0
STYLE
  5
21A
330
3
100
AcDbSymbolTableRecord
100
AcDbTextStyleTableRecord
  2
CONVERTER_12
 70
     0
 40
0.0
 41
0.9
 50
0.0
 71
     0
 42
0.2
  3
txt.shx
  4

  0
STYLE
  5
21D
330
3
100
AcDbSymbolTableRecord
100
AcDbTextStyleTableRecord
  2
CONVERTER_13
 70
     0
 40
0.0
 41
0.89999994635582
 50
0.0
 71
     0
 42
0.2
  3
txt.shx
  4

  0
STYLE
  5
224
330
3
100
AcDbSymbolTableRecord
100
AcDbTextStyleTableRecord
  2
CONVERTER_14
 70
     0
 40
0.0
 41
0.9
 50
0.0
 71
     0
 42
0.2
  3
txt.shx
  4

  0
STYLE
  5
22E
330
3
100
AcDbSymbolTableRecord
100
AcDbTextStyleTableRecord
  2
CONVERTER_15
 70
     0
 40
0.0
 41
0.95
 50
0.0
 71
     0
 42
0.2
  3
simplex.shx
  4

  0
ENDTAB
  0
TABLE
  2
VIEW
  5
6
330
0
100
AcDbSymbolTable
 70
     0
  0
ENDTAB
  0
TABLE
  2
UCS
  5
7
330
0
100
AcDbSymbolTable
 70
     0
  0
ENDTAB
  0
TABLE
  2
APPID
  5
9
330
0
100
AcDbSymbolTable
 70
     1
  0
APPID
  5
12
330
9
100
AcDbSymbolTableRecord
100
AcDbRegAppTableRecord
  2
ACAD
 70
     0
  0
ENDTAB
  0
TABLE
  2
DIMSTYLE
  5
A
330
0
100
AcDbSymbolTable
 70
     4
100
AcDbDimStyleTable
  0
DIMSTYLE
105
27
330
A
100
AcDbSymbolTableRecord
100
AcDbDimStyleTableRecord
  2
Standard
 70
     0
340
11
  0
DIMSTYLE
105
232
102
{ACAD_REACTORS
330
233
102
}
330
A
100
AcDbSymbolTableRecord
100
AcDbDimStyleTableRecord
  2
ME10_DIM_10
 70
     0
 41
6.0
 42
1.0
 44
2.0
 73
     0
 74
     0
 78
     8
140
6.0
147
4.0
172
     1
173
     1
174
     1
175
     1
176
     2
177
     2
178
     4
271
     0
340
22E
  0
DIMSTYLE
105
23E
102
{ACAD_REACTORS
330
23F
102
}
330
A
100
AcDbSymbolTableRecord
100
AcDbDimStyleTableRecord
  2
ME10_DIM_11
 70
     0
 41
6.0
 42
1.0
 44
2.0
 73
     0
 74
     0
 78
     8
140
6.0
147
4.0
172
     1
173
     1
174
     1
175
     1
176
     2
177
     2
178
     4
271
     2
340
22E
  0
DIMSTYLE
105
24A
102
{ACAD_REACTORS
330
24B
102
}
330
A
100
AcDbSymbolTableRecord
100
AcDbDimStyleTableRecord
  2
ME10_DIM_12
 70
     0
 41
6.0
 42
1.0
 44
2.0
 73
     0
 74
     0
 78
     8
140
6.0
147
4.0
172
     1
173
     1
174
     1
175
     1
176
     2
177
     2
178
     4
271
     0
340
22E
  0
ENDTAB
  0
TABLE
  2
BLOCK_RECORD
  5
1
330
0
100
AcDbSymbolTable
 70
     5
  0
BLOCK_RECORD
  5
1F
330
1
100
AcDbSymbolTableRecord
100
AcDbBlockTableRecord
  2
*Model_Space
340
22
  0
BLOCK_RECORD
  5
1B
330
1
100
AcDbSymbolTableRecord
100
AcDbBlockTableRecord
  2
*Paper_Space
340
1E
  0
BLOCK_RECORD
  5
23
330
1
100
AcDbSymbolTableRecord
100
AcDbBlockTableRecord
  2
*Paper_Space0
340
26
  0
BLOCK_RECORD
  5
4A
330
1
100
AcDbSymbolTableRecord
100
AcDbBlockTableRecord
  2
Ränder_Ilme_Rahmen_A4_quer
340
0
102
{BLKREFS
331
6F
102
}
  0
BLOCK_RECORD
  5
227
330
1
100
AcDbSymbolTableRecord
100
AcDbBlockTableRecord
  2
*D2
340
0
  0
BLOCK_RECORD
  5
234
330
1
100
AcDbSymbolTableRecord
100
AcDbBlockTableRecord
  2
*D3
340
0
  0
BLOCK_RECORD
  5
240
330
1
100
AcDbSymbolTableRecord
100
AcDbBlockTableRecord
  2
*D4
340
0
  0
ENDTAB
  0
ENDSEC
  0
SECTION
  2
BLOCKS
  0
BLOCK
  5
20
330
1F
100
AcDbEntity
  8
0
100
AcDbBlockBegin
  2
*Model_Space
 70
     0
 10
0.0
 20
0.0
 30
0.0
  3
*Model_Space
  1

  0
ENDBLK
  5
21
330
1F
100
AcDbEntity
  8
0
100
AcDbBlockEnd
  0
BLOCK
  5
1C
330
1B
100
AcDbEntity
 67
     1
  8
0
100
AcDbBlockBegin
  2
*Paper_Space
 70
     0
 10
0.0
 20
0.0
 30
0.0
  3
*Paper_Space
  1

  0
ENDBLK
  5
1D
330
1B
100
AcDbEntity
 67
     1
  8
0
100
AcDbBlockEnd
  0
BLOCK
  5
24
330
23
100
AcDbEntity
  8
0
100
AcDbBlockBegin
  2
*Paper_Space0
 70
     0
 10
0.0
 20
0.0
 30
0.0
  3
*Paper_Space0
  1

  0
ENDBLK
  5
25
330
23
100
AcDbEntity
  8
0
100
AcDbBlockEnd
  0
BLOCK
  5
4B
330
4A
100
AcDbEntity
  8
0
100
AcDbBlockBegin
  2
Ränder_Ilme_Rahmen_A4_quer
 70
     0
 10
-1745.201402105549
 20
718.69250149546
 30
0.0
  3
Ränder_Ilme_Rahmen_A4_quer
  1

  0
LWPOLYLINE
  5
70
330
4A
100
AcDbEntity
  8
Skizziergeometrie_ISO_
  6
Continuous
 62
     7
100
AcDbPolyline
 90
        2
 70
     0
 43
0.5
 10
-1171.201402105549
 20
1098.69250149546
 10
-1171.201402105549
 20
738.69250149546
  0
LWPOLYLINE
  5
71
330
4A
100
AcDbEntity
  8
Skizziergeometrie_ISO_
  6
Continuous
 62
     7
100
AcDbPolyline
 90
        2
 70
     0
 43
0.5
 10
-1448.201402105549
 20
1138.69250149546
 10
-1448.201402105549
 20
1110.69250149546
  0
LWPOLYLINE
  5
72
330
4A
100
AcDbEntity
  8
Skizziergeometrie_ISO_
  6
Continuous
 62
     7
100
AcDbPolyline
 90
        2
 70
     0
 43
0.5
 10
-1725.201402105549
 20
738.69250149546
 10
-1171.201402105549
 20
738.69250149546
  0
LWPOLYLINE
  5
73
330
4A
100
AcDbEntity
  8
Skizziergeometrie_ISO_
  6
Continuous
 62
     7
100
AcDbPolyline
 90
        2
 70
     0
 43
0.5
 10
-1725.201402105549
 20
1098.69250149546
 10
-1171.201402105549
 20
1098.69250149546
  0
LWPOLYLINE
  5
74
330
4A
100
AcDbEntity
  8
Skizziergeometrie_ISO_
  6
Continuous
 62
     7
100
AcDbPolyline
 90
        2
 70
     0
 43
0.5
 10
-1725.201402105549
 20
738.69250149546
 10
-1725.201402105549
 20
1098.69250149546
  0
MTEXT
  5
76
330
4A
100
AcDbEntity
  8
Symbole_ISO_
 62
     7
100
AcDbMText
 10
-1443.601402105549
 20
1111.52226165553
 30
0.0
 40
7.0
 41
0.0
 71
     2
 72
     1
  1
Diritti riservati     All rights reserved
  7
CONVERTER_11
 73
     1
 44
0.75727272727273
  0
ENDBLK
  5
4C
330
4A
100
AcDbEntity
  8
0
100
AcDbBlockEnd
  0
BLOCK
  5
230
330
227
100
AcDbEntity
  8
0
100
AcDbBlockBegin
  2
*D2
 70
     1
 10
0.0
 20
0.0
 30
0.0
  3
*D2
  1

  0
LINE
  5
228
330
227
100
AcDbEntity
  8
1
  6
Continuous
 62
     2
100
AcDbLine
 10
-1574.873115511991
 20
969.0859895201357
 30
0.0
 11
-1518.32400107612
 21
969.0859895201357
 31
0.0
  0
LINE
  5
229
330
227
100
AcDbEntity
  8
1
  6
Continuous
 62
     2
100
AcDbLine
 10
-1497.72400107612
 20
969.0859895201357
 30
0.0
 11
-1441.174886640248
 21
969.0859895201357
 31
0.0
  0
LINE
  5
22A
330
227
100
AcDbEntity
  8
1
  6
Continuous
 62
     2
100
AcDbLine
 10
-1574.873115511991
 20
1029.575981865618
 30
0.0
 11
-1574.873115511991
 21
967.0859895201357
 31
0.0
  0
LINE
  5
22B
330
227
100
AcDbEntity
  8
1
  6
Continuous
 62
     2
100
AcDbLine
 10
-1441.174886640248
 20
996.4942017966346
 30
0.0
 11
-1441.174886640248
 21
967.0859895201357
 31
0.0
  0
SOLID
  5
22C
330
227
100
AcDbEntity
  8
1
 62
     2
100
AcDbTrace
 10
-1568.873115511991
 20
969.8759045056601
 30
0.0
 11
-1568.873115511991
 21
968.2960745346114
 31
0.0
 12
-1574.873115511991
 22
969.0859895201357
 32
0.0
 13
-1574.873115511991
 23
969.0859895201357
 33
0.0
  0
SOLID
  5
22D
330
227
100
AcDbEntity
  8
1
 62
     2
100
AcDbTrace
 10
-1447.174886640248
 20
968.2960745346114
 30
0.0
 11
-1447.174886640248
 21
969.8759045056601
 31
0.0
 12
-1441.174886640248
 22
969.0859895201357
 32
0.0
 13
-1441.174886640248
 23
969.0859895201357
 33
0.0
  0
MTEXT
  5
22F
330
227
100
AcDbEntity
  8
1
 62
     4
100
AcDbMText
 10
-1514.32400107612
 20
966.0859895201357
 30
0.0
 40
6.0
 41
0.0
 71
     7
 72
     1
  1
134
  7
CONVERTER_15
 11
0.9999999999970619
 21
2.424068405545306E-6
 31
0.0
 73
     1
 44
0.60024009603842
  0
ENDBLK
  5
231
330
227
100
AcDbEntity
  8
0
100
AcDbBlockEnd
  0
BLOCK
  5
23C
330
234
100
AcDbEntity
  8
0
100
AcDbBlockBegin
  2
*D3
 70
     1
 10
0.0
 20
0.0
 30
0.0
  3
*D3
  1

  0
LINE
  5
235
330
234
100
AcDbEntity
  8
1
  6
Continuous
 62
     2
100
AcDbLine
 10
-1425.84153052016
 20
892.9450184306645
 30
0.0
 11
-1425.84153052016
 21
904.9450184306645
 31
0.0
  0
LINE
  5
236
330
234
100
AcDbEntity
  8
1
  6
Continuous
 62
     2
100
AcDbLine
 10
-1425.84153052016
 20
866.4450212196249
 30
0.0
 11
-1425.84153052016
 21
854.4450212196249
 31
0.0
  0
LINE
  5
237
330
234
100
AcDbEntity
  8
1
  6
Continuous
 62
     2
100
AcDbLine
 10
-1440.159286640247
 20
892.9450184306645
 30
0.0
 11
-1423.84153052016
 21
892.9450184306645
 31
0.0
  0
LINE
  5
238
330
234
100
AcDbEntity
  8
1
  6
Continuous
 62
     2
100
AcDbLine
 10
-1469.22447893786
 20
866.4450212196249
 30
0.0
 11
-1423.84153052016
 21
866.4450212196249
 31
0.0
  0
SOLID
  5
239
330
234
100
AcDbEntity
  8
1
 62
     2
100
AcDbTrace
 10
-1426.631445505684
 20
898.9450184306645
 30
0.0
 11
-1425.051615534636
 21
898.9450184306645
 31
0.0
 12
-1425.84153052016
 22
892.9450184306645
 32
0.0
 13
-1425.84153052016
 23
892.9450184306645
 33
0.0
  0
SOLID
  5
23A
330
234
100
AcDbEntity
  8
1
 62
     2
100
AcDbTrace
 10
-1425.051615534636
 20
860.4450212196249
 30
0.0
 11
-1426.631445505684
 21
860.4450212196249
 31
0.0
 12
-1425.84153052016
 22
866.4450212196249
 32
0.0
 13
-1425.84153052016
 23
866.4450212196249
 33
0.0
  0
MTEXT
  5
23B
330
234
100
AcDbEntity
  8
1
 62
     4
100
AcDbMText
 10
-1422.84153052016
 20
875.1950198251448
 30
0.0
 40
6.0
 41
0.0
 71
     7
 72
     1
  1
27
  7
CONVERTER_15
 11
0.0
 21
1.0
 31
0.0
 73
     1
 44
0.60024009603842
  0
ENDBLK
  5
23D
330
234
100
AcDbEntity
  8
0
100
AcDbBlockEnd
  0
BLOCK
  5
248
330
240
100
AcDbEntity
  8
0
100
AcDbBlockBegin
  2
*D4
 70
     1
 10
0.0
 20
0.0
 30
0.0
  3
*D4
  1

  0
LINE
  5
241
330
240
100
AcDbEntity
  8
1
  6
Continuous
 62
     2
100
AcDbLine
 10
-1336.303166714526
 20
1043.984218393904
 30
0.0
 11
-1336.303166714526
 21
1022.535103957018
 31
0.0
  0
LINE
  5
242
330
240
100
AcDbEntity
  8
1
  6
Continuous
 62
     2
100
AcDbLine
 10
-1336.303166714526
 20
1005.535103957018
 30
0.0
 11
-1336.303166714526
 21
984.0859895201322
 31
0.0
  0
LINE
  5
243
330
240
100
AcDbEntity
  8
1
  6
Continuous
 62
     2
100
AcDbLine
 10
-1322.201402105549
 20
1043.984218393904
 30
0.0
 11
-1338.303166714526
 21
1043.984218393904
 31
0.0
  0
LINE
  5
244
330
240
100
AcDbEntity
  8
1
  6
Continuous
 62
     2
100
AcDbLine
 10
-1322.201402105549
 20
984.0859895201322
 30
0.0
 11
-1338.303166714526
 21
984.0859895201322
 31
0.0
  0
SOLID
  5
245
330
240
100
AcDbEntity
  8
1
 62
     2
100
AcDbTrace
 10
-1335.513251729002
 20
1037.984218393904
 30
0.0
 11
-1337.09308170005
 21
1037.984218393904
 31
0.0
 12
-1336.303166714526
 22
1043.984218393904
 32
0.0
 13
-1336.303166714526
 23
1043.984218393904
 33
0.0
  0
SOLID
  5
246
330
240
100
AcDbEntity
  8
1
 62
     2
100
AcDbTrace
 10
-1337.09308170005
 20
990.0859895201322
 30
0.0
 11
-1335.513251729002
 21
990.0859895201322
 31
0.0
 12
-1336.303166714526
 22
984.0859895201322
 32
0.0
 13
-1336.303166714526
 23
984.0859895201322
 33
0.0
  0
MTEXT
  5
247
330
240
100
AcDbEntity
  8
1
 62
     4
100
AcDbMText
 10
-1333.303166714526
 20
1009.535103957018
 30
0.0
 40
6.0
 41
0.0
 71
     7
 72
     1
  1
60
  7
CONVERTER_15
 11
0.0
 21
1.0
 31
0.0
 73
     1
 44
0.60024009603842
  0
ENDBLK
  5
249
330
240
100
AcDbEntity
  8
0
100
AcDbBlockEnd
  0
ENDSEC
  0
SECTION
  2
ENTITIES
  0
INSERT
  5
6F
330
1F
100
AcDbEntity
  8
0
100
AcDbBlockReference
  2
Ränder_Ilme_Rahmen_A4_quer
 10
-1745.201402105549
 20
718.69250149546
 30
0.0
  0
LINE
  5
77
330
1F
100
AcDbEntity
  8
1
  6
DOT_CENTER
 62
     2
100
AcDbLine
 10
-1314.201402105549
 20
1033.685103957017
 30
0.0
 11
-1310.201402105549
 21
1033.685103957017
 31
0.0
  0
LINE
  5
78
330
1F
100
AcDbEntity
  8
0
  6
Continuous
 62
     7
100
AcDbLine
 10
-1314.201402105555
 20
997.786051194032
 30
0.0
 11
-1314.201402105549
 21
995.0840511650647
 31
0.0
  0
LINE
  5
79
330
1F
100
AcDbEntity
  8
0
  6
Continuous
 62
     2
100
AcDbLine
 10
-1315.201402105549
 20
995.0840511650647
 30
0.0
 11
-1321.201402105549
 21
995.0840511650647
 31
0.0
  0
LINE
  5
7A
330
1F
100
AcDbEntity
  8
0
  6
Continuous
 62
     2
100
AcDbLine
 10
-1310.201402105549
 20
991.4128436275363
 30
0.0
 11
-1310.201402105549
 21
986.1850777728661
 31
0.0
  0
LINE
  5
7B
330
1F
100
AcDbEntity
  8
0
  6
Continuous
 62
     7
100
AcDbLine
 10
-1314.201402105549
 20
986.1850777728661
 30
0.0
 11
-1310.201402105549
 21
986.1850777728661
 31
0.0
  0
LINE
  5
7C
330
1F
100
AcDbEntity
  8
0
  6
Continuous
 62
     7
100
AcDbLine
 10
-1309.201402105549
 20
991.4477643970281
 30
0.0
 11
-1309.201402105549
 21
987.1850777728661
 31
0.0
  0
LINE
  5
7D
330
1F
100
AcDbEntity
  8
0
  6
Continuous
 62
     2
100
AcDbLine
 10
-1297.596704935642
 20
1017.435372342725
 30
0.0
 11
-1297.596704914181
 21
1010.634807788993
 31
0.0
  0
LINE
  5
7E
330
1F
100
AcDbEntity
  8
0
  6
Continuous
 62
     2
100
AcDbLine
 10
-1298.559897640796
 20
1029.754793884402
 30
0.0
 11
-1309.201402105549
 21
1030.126403141386
 31
0.0
  0
LINE
  5
7F
330
1F
100
AcDbEntity
  8
0
  6
Continuous
 62
     2
100
AcDbLine
 10
-1315.201402105549
 20
1016.578996888813
 30
0.0
 11
-1321.201402105549
 21
1016.578996888813
 31
0.0
  0
LINE
  5
80
330
1F
100
AcDbEntity
  8
0
  6
Continuous
 62
     7
100
AcDbLine
 10
-1321.201402105549
 20
1022.577274134174
 30
0.0
 11
-1315.201402105549
 21
1022.577274134174
 31
0.0
  0
LINE
  5
81
330
1F
100
AcDbEntity
  8
0
  6
Continuous
 62
     2
100
AcDbLine
 10
-1321.201402105549
 20
1030.575981865614
 30
0.0
 11
-1315.201402105549
 21
1030.575981865614
 31
0.0
  0
LINE
  5
82
330
1F
100
AcDbEntity
  8
0
  6
Continuous
 62
     2
100
AcDbLine
 10
-1315.201402105549
 20
1022.577274134174
 30
0.0
 11
-1315.201402105549
 21
1016.578996888813
 31
0.0
  0
LINE
  5
83
330
1F
100
AcDbEntity
  8
0
  6
Continuous
 62
     7
100
AcDbLine
 10
-1321.201402105549
 20
1022.577274134174
 30
0.0
 11
-1321.201402105549
 21
1016.578996888813
 31
0.0
  0
LINE
  5
84
330
1F
100
AcDbEntity
  8
0
  6
Continuous
 62
     7
100
AcDbLine
 10
-1314.201402105549
 20
1025.185103957017
 30
0.0
 11
-1310.201402105549
 21
1025.185103957017
 31
0.0
  0
LINE
  5
85
330
1F
100
AcDbEntity
  8
0
  6
Continuous
 62
     2
100
AcDbLine
 10
-1315.201402105549
 20
984.0859895201316
 30
0.0
 11
-1315.201402105549
 21
995.0840511650647
 31
0.0
  0
LINE
  5
86
330
1F
100
AcDbEntity
  8
0
  6
Continuous
 62
     2
100
AcDbLine
 10
-1314.201402105549
 20
995.0840511650647
 30
0.0
 11
-1315.201402105549
 21
995.0840511650647
 31
0.0
  0
LINE
  5
87
330
1F
100
AcDbEntity
  8
0
  6
Continuous
 62
     7
100
AcDbLine
 10
-1314.201402105549
 20
990.7903179374165
 30
0.0
 11
-1314.201402105549
 21
995.0840511650647
 31
0.0
  0
LINE
  5
88
330
1F
100
AcDbEntity
  8
0
  6
Continuous
 62
     7
100
AcDbLine
 10
-1314.201402105549
 20
986.1850777728661
 30
0.0
 11
-1314.201402105549
 21
990.7903179374165
 31
0.0
  0
LINE
  5
89
330
1F
100
AcDbEntity
  8
0
  6
Continuous
 62
     7
100
AcDbLine
 10
-1314.201402105549
 20
985.0859895201316
 30
0.0
 11
-1314.201402105549
 21
986.1850777728661
 31
0.0
  0
LINE
  5
8A
330
1F
100
AcDbEntity
  8
0
  6
Continuous
 62
     7
100
AcDbLine
 10
-1314.201402105549
 20
1016.578996888813
 30
0.0
 11
-1314.201402105555
 21
997.786051194032
 31
0.0
  0
LINE
  5
8B
330
1F
100
AcDbEntity
  8
0
  6
Continuous
 62
     2
100
AcDbLine
 10
-1313.718851829711
 20
1025.185103957017
 30
0.0
 11
-1313.718851861072
 21
997.786051951049
 31
0.0
  0
LINE
  5
8C
330
1F
100
AcDbEntity
  8
0
  6
Continuous
 62
     7
100
AcDbLine
 10
-1314.201402105549
 20
1023.577274134174
 30
0.0
 11
-1314.201402105549
 21
1016.578996888813
 31
0.0
  0
LINE
  5
8D
330
1F
100
AcDbEntity
  8
0
  6
Continuous
 62
     2
100
AcDbLine
 10
-1315.201402105549
 20
1016.578996888813
 30
0.0
 11
-1315.201402105549
 21
995.0840511650647
 31
0.0
  0
LINE
  5
8E
330
1F
100
AcDbEntity
  8
0
  6
Continuous
 62
     2
100
AcDbLine
 10
-1315.201402105549
 20
1030.575981865614
 30
0.0
 11
-1315.201402105549
 21
1022.577274134174
 31
0.0
  0
LINE
  5
8F
330
1F
100
AcDbEntity
  8
0
  6
Continuous
 62
     2
100
AcDbLine
 10
-1315.201402105549
 20
1035.985510662465
 30
0.0
 11
-1315.201402105549
 21
1030.575981865614
 31
0.0
  0
LINE
  5
90
330
1F
100
AcDbEntity
  8
0
  6
Continuous
 62
     2
100
AcDbLine
 10
-1314.201402105549
 20
1035.985510662465
 30
0.0
 11
-1315.201402105549
 21
1035.985510662465
 31
0.0
  0
LINE
  5
91
330
1F
100
AcDbEntity
  8
0
  6
Continuous
 62
     2
100
AcDbLine
 10
-1314.201402105549
 20
1016.578996888813
 30
0.0
 11
-1315.201402105549
 21
1016.578996888813
 31
0.0
  0
LINE
  5
92
330
1F
100
AcDbEntity
  8
0
  6
Continuous
 62
     7
100
AcDbLine
 10
-1314.201402105549
 20
1042.185103957017
 30
0.0
 11
-1314.201402105549
 21
1035.985510662465
 31
0.0
  0
LINE
  5
93
330
1F
100
AcDbEntity
  8
0
  6
Continuous
 62
     7
100
AcDbLine
 10
-1314.201402105549
 20
1042.984218393904
 30
0.0
 11
-1314.201402105549
 21
1042.185103957017
 31
0.0
  0
LINE
  5
94
330
1F
100
AcDbEntity
  8
0
  6
Continuous
 62
     7
100
AcDbLine
 10
-1314.201402105549
 20
1025.185103957017
 30
0.0
 11
-1314.201402105549
 21
1023.577274134174
 31
0.0
  0
LINE
  5
95
330
1F
100
AcDbEntity
  8
0
  6
Continuous
 62
     2
100
AcDbLine
 10
-1315.201402105549
 20
1043.984218393904
 30
0.0
 11
-1315.201402105549
 21
1035.985510662465
 31
0.0
  0
LINE
  5
96
330
1F
100
AcDbEntity
  8
0
  6
Continuous
 62
     7
100
AcDbLine
 10
-1321.201402105549
 20
1043.984218393904
 30
0.0
 11
-1315.201402105549
 21
1043.984218393904
 31
0.0
  0
LINE
  5
97
330
1F
100
AcDbEntity
  8
0
  6
Continuous
 62
     7
100
AcDbLine
 10
-1321.201402105549
 20
1043.984218393904
 30
0.0
 11
-1321.201402105549
 21
1035.985510662465
 31
0.0
  0
LINE
  5
98
330
1F
100
AcDbEntity
  8
0
  6
Continuous
 62
     2
100
AcDbLine
 10
-1298.559903205554
 20
998.3154139689558
 30
0.0
 11
-1313.718851861072
 21
997.786051951049
 31
0.0
  0
LINE
  5
99
330
1F
100
AcDbEntity
  8
0
  6
Continuous
 62
     7
100
AcDbLine
 10
-1299.196592235013
 20
1036.273067857712
 30
0.0
 11
-1309.201402105549
 21
1036.622443517009
 31
0.0
  0
LINE
  5
9A
330
1F
100
AcDbEntity
  8
0
  6
Continuous
 62
     7
100
AcDbLine
 10
-1314.201402105549
 20
1035.985510662465
 30
0.0
 11
-1314.201402105549
 21
1030.575981865614
 31
0.0
  0
LINE
  5
9B
330
1F
100
AcDbEntity
  8
0
  6
Continuous
 62
     2
100
AcDbLine
 10
-1321.201402105549
 20
1035.985510662465
 30
0.0
 11
-1315.201402105549
 21
1035.985510662465
 31
0.0
  0
LINE
  5
9C
330
1F
100
AcDbEntity
  8
0
  6
Continuous
 62
     2
100
AcDbLine
 10
-1314.201402105549
 20
1030.575981865614
 30
0.0
 11
-1315.201402105549
 21
1030.575981865614
 31
0.0
  0
LINE
  5
9D
330
1F
100
AcDbEntity
  8
0
  6
Continuous
 62
     7
100
AcDbLine
 10
-1314.201402105549
 20
1030.575981865614
 30
0.0
 11
-1314.201402105549
 21
1025.185103957017
 31
0.0
  0
LINE
  5
9E
330
1F
100
AcDbEntity
  8
0
  6
Continuous
 62
     7
100
AcDbLine
 10
-1309.201402105549
 20
1041.185103957017
 30
0.0
 11
-1309.201402105549
 21
1037.283024216974
 31
0.0
  0
LINE
  5
9F
330
1F
100
AcDbEntity
  8
0
  6
Continuous
 62
     2
100
AcDbLine
 10
-1310.201402105549
 20
1042.185103957017
 30
0.0
 11
-1310.201402105549
 21
1037.762746918301
 31
0.0
  0
LINE
  5
A0
330
1F
100
AcDbEntity
  8
0
  6
Continuous
 62
     7
100
AcDbLine
 10
-1314.201402105549
 20
1042.185103957017
 30
0.0
 11
-1310.201402105549
 21
1042.185103957017
 31
0.0
  0
LINE
  5
A1
330
1F
100
AcDbEntity
  8
0
  6
Continuous
 62
     2
100
AcDbLine
 10
-1310.201402105549
 20
1037.762746918301
 30
0.0
 11
-1310.201402105549
 21
1025.185103957017
 31
0.0
  0
LINE
  5
A2
330
1F
100
AcDbEntity
  8
0
  6
Continuous
 62
     7
100
AcDbLine
 10
-1309.201402105549
 20
1037.283024216974
 30
0.0
 11
-1309.201402105549
 21
1026.185103957017
 31
0.0
  0
LINE
  5
A3
330
1F
100
AcDbEntity
  8
0
  6
Continuous
 62
     7
100
AcDbLine
 10
-1299.196599564202
 20
991.7971398003848
 30
0.0
 11
-1313.718851823874
 21
991.2900115767239
 31
0.0
  0
LINE
  5
A4
330
1F
100
AcDbEntity
  8
0
  6
Continuous
 62
     7
100
AcDbLine
 10
-1315.201402105549
 20
984.0859895201316
 30
0.0
 11
-1321.201402105549
 21
984.0859895201316
 31
0.0
  0
LINE
  5
A5
330
1F
100
AcDbEntity
  8
0
  6
Continuous
 62
     7
100
AcDbLine
 10
-1294.70140489451
 20
1017.435103956965
 30
0.0
 11
-1294.70140489451
 21
1010.635103957073
 31
0.0
  0
LINE
  5
A6
330
1F
100
AcDbEntity
  8
0
  6
Continuous
 62
     7
100
AcDbLine
 10
-1321.201402105549
 20
1016.578996888813
 30
0.0
 11
-1321.201402105549
 21
995.0840511650647
 31
0.0
  0
LINE
  5
A7
330
1F
100
AcDbEntity
  8
0
  6
Continuous
 62
     7
100
AcDbLine
 10
-1321.201402105549
 20
1035.985510662465
 30
0.0
 11
-1321.201402105549
 21
1030.575981865614
 31
0.0
  0
LINE
  5
A8
330
1F
100
AcDbEntity
  8
0
  6
Continuous
 62
     7
100
AcDbLine
 10
-1321.201402105549
 20
1030.575981865614
 30
0.0
 11
-1321.201402105549
 21
1022.577274134174
 31
0.0
  0
LINE
  5
A9
330
1F
100
AcDbEntity
  8
0
  6
Continuous
 62
     7
100
AcDbLine
 10
-1321.201402105549
 20
984.0859895201316
 30
0.0
 11
-1321.201402105549
 21
995.0840511650647
 31
0.0
  0
LINE
  5
AA
330
1F
100
AcDbEntity
  8
0
  6
Continuous
 62
     7
100
AcDbLine
 10
-1441.159286640247
 20
892.9450184306645
 30
0.0
 11
-1449.157994640248
 21
892.9450184306645
 31
0.0
  0
LINE
  5
AB
330
1F
100
AcDbEntity
  8
0
  6
Continuous
 62
     7
100
AcDbLine
 10
-1441.159286640247
 20
888.5507733475436
 30
0.0
 11
-1441.159286640247
 21
886.9450184306645
 31
0.0
  0
LINE
  5
AC
330
1F
100
AcDbEntity
  8
0
  6
Continuous
 62
     7
100
AcDbLine
 10
-1467.192670845792
 20
870.3035195292152
 30
0.0
 11
-1466.663308692786
 21
885.4624682210621
 31
0.0
  0
LINE
  5
AD
330
1F
100
AcDbEntity
  8
0
  6
Continuous
 62
     7
100
AcDbLine
 10
-1467.192670845792
 20
870.3035195292152
 30
0.0
 11
-1467.226306470498
 21
869.3403212607941
 31
0.0
  0
LINE
  5
AE
330
1F
100
AcDbEntity
  8
0
  6
Continuous
 62
     7
100
AcDbLine
 10
-1441.159286640247
 20
892.9450184306645
 30
0.0
 11
-1441.159286640247
 21
888.5507733475436
 31
0.0
  0
LINE
  5
AF
330
1F
100
AcDbEntity
  8
0
  6
Continuous
 62
     7
100
AcDbLine
 10
-1548.824131159632
 20
870.303515354649
 30
0.0
 11
-1549.353533097546
 21
885.463603337218
 31
0.0
  0
LINE
  5
B0
330
1F
100
AcDbEntity
  8
0
  6
Continuous
 62
     2
100
AcDbLine
 10
-1542.350324600673
 20
870.9402084545859
 30
0.0
 11
-1542.857453151211
 21
885.4624682209655
 31
0.0
  0
LINE
  5
B1
330
1F
100
AcDbEntity
  8
0
  6
Continuous
 62
     2
100
AcDbLine
 10
-1542.350324600673
 20
870.9402084545859
 30
0.0
 11
-1473.66647689963
 21
870.9402158446715
 31
0.0
  0
LINE
  5
B2
330
1F
100
AcDbEntity
  8
0
  6
Continuous
 62
     7
100
AcDbLine
 10
-1453.011009394365
 20
885.9450184306645
 30
0.0
 11
-1460.009286639726
 21
885.9450184306645
 31
0.0
  0
LINE
  5
B3
330
1F
100
AcDbEntity
  8
0
  6
Continuous
 62
     7
100
AcDbLine
 10
-1470.007348284659
 20
885.9450184306645
 30
0.0
 11
-1473.159342717023
 21
885.9450184306578
 31
0.0
  0
LINE
  5
B4
330
1F
100
AcDbEntity
  8
0
  6
Continuous
 62
     2
100
AcDbLine
 10
-1470.007348284659
 20
885.9450184306645
 30
0.0
 11
-1470.007348284659
 21
886.9450184306645
 31
0.0
  0
LINE
  5
B5
330
1F
100
AcDbEntity
  8
0
  6
Continuous
 62
     7
100
AcDbLine
 10
-1466.163613114655
 20
885.9450184306645
 30
0.0
 11
-1470.007348284659
 21
885.9450184306645
 31
0.0
  0
LINE
  5
B6
330
1F
100
AcDbEntity
  8
0
  6
Continuous
 62
     7
100
AcDbLine
 10
-1460.009286639726
 20
885.9450184306645
 30
0.0
 11
-1466.163613114655
 21
885.9450184306645
 31
0.0
  0
LINE
  5
B7
330
1F
100
AcDbEntity
  8
0
  6
Continuous
 62
     2
100
AcDbLine
 10
-1459.009286639726
 20
886.9450184306645
 30
0.0
 11
-1470.007348284659
 21
886.9450184306645
 31
0.0
  0
LINE
  5
B8
330
1F
100
AcDbEntity
  8
0
  6
Continuous
 62
     7
100
AcDbLine
 10
-1459.009286639726
 20
892.9450184306645
 30
0.0
 11
-1459.009286639726
 21
886.9450184306645
 31
0.0
  0
LINE
  5
B9
330
1F
100
AcDbEntity
  8
0
  6
Continuous
 62
     2
100
AcDbLine
 10
-1470.007348284659
 20
892.9450184306645
 30
0.0
 11
-1470.007348284659
 21
886.9450184306645
 31
0.0
  0
LINE
  5
BA
330
1F
100
AcDbEntity
  8
0
  6
Continuous
 62
     7
100
AcDbLine
 10
-1459.009286639726
 20
892.9450184306645
 30
0.0
 11
-1470.007348284659
 21
892.9450184306645
 31
0.0
  0
LINE
  5
BB
330
1F
100
AcDbEntity
  8
0
  6
Continuous
 62
     7
100
AcDbLine
 10
-1449.845744861481
 20
880.9450184306644
 30
0.0
 11
-1455.037812840988
 21
880.9450184306644
 31
0.0
  0
LINE
  5
BC
330
1F
100
AcDbEntity
  8
0
  6
Continuous
 62
     7
100
AcDbLine
 10
-1453.011009394365
 20
885.9450184306645
 30
0.0
 11
-1443.008401076283
 21
885.9450184306645
 31
0.0
  0
LINE
  5
BD
330
1F
100
AcDbEntity
  8
0
  6
Continuous
 62
     7
100
AcDbLine
 10
-1455.037812840988
 20
880.9450184306644
 30
0.0
 11
-1459.008401076282
 21
880.9450184306644
 31
0.0
  0
LINE
  5
BE
330
1F
100
AcDbEntity
  8
0
  6
Continuous
 62
     2
100
AcDbLine
 10
-1443.008401076283
 20
881.945018430656
 30
0.0
 11
-1455.508401076282
 21
881.9450184306645
 31
0.0
  0
LINE
  5
BF
330
1F
100
AcDbEntity
  8
0
  6
Continuous
 62
     2
100
AcDbLine
 10
-1453.011009394365
 20
886.9450184306645
 30
0.0
 11
-1459.009286639726
 21
886.9450184306645
 31
0.0
  0
LINE
  5
C0
330
1F
100
AcDbEntity
  8
0
  6
Continuous
 62
     7
100
AcDbLine
 10
-1453.011009394365
 20
892.9450184306645
 30
0.0
 11
-1459.009286639726
 21
892.9450184306645
 31
0.0
  0
LINE
  5
C1
330
1F
100
AcDbEntity
  8
0
  6
Continuous
 62
     2
100
AcDbLine
 10
-1453.011009394365
 20
886.9450184306645
 30
0.0
 11
-1453.011009394365
 21
892.9450184306645
 31
0.0
  0
LINE
  5
C2
330
1F
100
AcDbEntity
  8
0
  6
Continuous
 62
     2
100
AcDbLine
 10
-1453.011009394365
 20
885.9450184306645
 30
0.0
 11
-1453.011009394365
 21
886.9450184306645
 31
0.0
  0
LINE
  5
C3
330
1F
100
AcDbEntity
  8
0
  6
Continuous
 62
     7
100
AcDbLine
 10
-1460.009286639726
 20
885.9450184306645
 30
0.0
 11
-1460.008401076282
 21
881.9450184306645
 31
0.0
  0
LINE
  5
C4
330
1F
100
AcDbEntity
  8
0
  6
Continuous
 62
     2
100
AcDbLine
 10
-1455.508401076282
 20
881.9450184306645
 30
0.0
 11
-1460.008401076282
 21
881.9450184306645
 31
0.0
  0
LINE
  5
C5
330
1F
100
AcDbEntity
  8
0
  6
Continuous
 62
     2
100
AcDbLine
 10
-1449.157994640248
 20
887.2054054197088
 30
0.0
 11
-1449.157994375063
 21
886.9450184306645
 31
0.0
  0
LINE
  5
C6
330
1F
100
AcDbEntity
  8
0
  6
Continuous
 62
     2
100
AcDbLine
 10
-1453.011009394365
 20
886.9450184306645
 30
0.0
 11
-1441.159286640247
 21
886.9450184306645
 31
0.0
  0
LINE
  5
C7
330
1F
100
AcDbEntity
  8
0
  6
Continuous
 62
     2
100
AcDbLine
 10
-1449.157994640248
 20
892.9450184306645
 30
0.0
 11
-1449.157994640248
 21
887.2054054197088
 31
0.0
  0
LINE
  5
C8
330
1F
100
AcDbEntity
  8
0
  6
Continuous
 62
     7
100
AcDbLine
 10
-1453.011009394365
 20
892.9450184306645
 30
0.0
 11
-1449.157994640248
 21
892.9450184306645
 31
0.0
  0
LINE
  5
C9
330
1F
100
AcDbEntity
  8
0
  6
Continuous
 62
     7
100
AcDbLine
 10
-1449.349842851319
 20
886.9450184306645
 30
0.0
 11
-1449.157994375063
 21
886.9450184306645
 31
0.0
  0
LINE
  5
CA
330
1F
100
AcDbEntity
  8
0
  6
Continuous
 62
     7
100
AcDbLine
 10
-1443.008401076283
 20
885.9450184306645
 30
0.0
 11
-1443.008401076283
 21
881.9450184306645
 31
0.0
  0
LINE
  5
CB
330
1F
100
AcDbEntity
  8
0
  6
Continuous
 62
     7
100
AcDbLine
 10
-1442.159286640247
 20
885.9450184306645
 30
0.0
 11
-1443.008401076283
 21
885.9450184306645
 31
0.0
  0
LINE
  5
CC
330
1F
100
AcDbEntity
  8
0
  6
Continuous
 62
     7
100
AcDbLine
 10
-1444.008401076283
 20
880.9450184306644
 30
0.0
 11
-1449.845744861481
 21
880.9450184306644
 31
0.0
  0
LINE
  5
CD
330
1F
100
AcDbEntity
  8
0
  6
Continuous
 62
     7
100
AcDbLine
 10
-1548.790495680704
 20
869.3403212607576
 30
0.0
 11
-1548.824131159632
 21
870.303515354649
 31
0.0
  0
LINE
  5
CE
330
1F
100
AcDbEntity
  8
0
  6
Continuous
 62
     2
100
AcDbLine
 10
-1473.66647689963
 20
870.9402158446715
 30
0.0
 11
-1473.159349667106
 21
885.4624681247784
 31
0.0
  0
LINE
  5
CF
330
1F
100
AcDbEntity
  8
0
  6
Continuous
 62
     2
100
AcDbLine
 10
-1542.350324701243
 20
868.1057029793224
 30
0.0
 11
-1473.667399068953
 21
868.1057021285013
 31
0.0
  0
LINE
  5
D0
330
1F
100
AcDbEntity
  8
0
  6
Continuous
 62
     7
100
AcDbLine
 10
-1557.008401075597
 20
880.9450184306644
 30
0.0
 11
-1562.436147321592
 21
880.9450184306644
 31
0.0
  0
LINE
  5
D1
330
1F
100
AcDbEntity
  8
0
  6
Continuous
 62
     7
100
AcDbLine
 10
-1545.792323081771
 20
866.4450184474366
 30
0.0
 11
-1470.22447893786
 21
866.4450212196249
 31
0.0
  0
LINE
  5
D2
330
1F
100
AcDbEntity
  8
0
  6
Continuous
 62
     7
100
AcDbLine
 10
-1473.159342717023
 20
885.9450184306578
 30
0.0
 11
-1542.857454016071
 21
885.9450184306736
 31
0.0
  0
LINE
  5
D3
330
1F
100
AcDbEntity
  8
0
  6
Continuous
 62
     2
100
AcDbLine
 10
-1477.143307075597
 20
885.4624681582369
 30
0.0
 11
-1542.857453151211
 21
885.4624682209655
 31
0.0
  0
LINE
  5
D4
330
1F
100
AcDbEntity
  8
0
  6
Continuous
 62
     2
100
AcDbLine
 10
-1473.159349667106
 20
885.4624681247784
 30
0.0
 11
-1477.143307075597
 21
885.4624681582369
 31
0.0
  0
LINE
  5
D5
330
1F
100
AcDbEntity
  8
0
  6
Continuous
 62
     7
100
AcDbLine
 10
-1549.853187432272
 20
885.9450184306645
 30
0.0
 11
-1556.008401075597
 21
885.9450184306645
 31
0.0
  0
LINE
  5
D6
330
1F
100
AcDbEntity
  8
0
  6
Continuous
 62
     7
100
AcDbLine
 10
-1542.857454016071
 20
885.9450184306736
 30
0.0
 11
-1549.853187432272
 21
885.9450184306645
 31
0.0
  0
LINE
  5
D7
330
1F
100
AcDbEntity
  8
0
  6
Continuous
 62
     2
100
AcDbLine
 10
-1470.007348284659
 20
886.9450184306645
 30
0.0
 11
-1574.857515511991
 21
886.9450184306645
 31
0.0
  0
LINE
  5
D8
330
1F
100
AcDbEntity
  8
0
  6
Continuous
 62
     2
100
AcDbLine
 10
-1566.858807780552
 20
892.9450184306645
 30
0.0
 11
-1566.858807780552
 21
889.1341783298978
 31
0.0
  0
LINE
  5
D9
330
1F
100
AcDbEntity
  8
0
  6
Continuous
 62
     2
100
AcDbLine
 10
-1566.858807780552
 20
889.1341783298978
 30
0.0
 11
-1566.85880777694
 21
886.9450184306645
 31
0.0
  0
LINE
  5
DA
330
1F
100
AcDbEntity
  8
0
  6
Continuous
 62
     7
100
AcDbLine
 10
-1470.007348284659
 20
892.9450184306645
 30
0.0
 11
-1566.858807780552
 21
892.9450184306645
 31
0.0
  0
LINE
  5
DB
330
1F
100
AcDbEntity
  8
0
  6
Continuous
 62
     7
100
AcDbLine
 10
-1574.857515511991
 20
892.9450184306645
 30
0.0
 11
-1574.857515511991
 21
888.6229217072976
 31
0.0
  0
LINE
  5
DC
330
1F
100
AcDbEntity
  8
0
  6
Continuous
 62
     7
100
AcDbLine
 10
-1566.858807780552
 20
892.9450184306645
 30
0.0
 11
-1574.857515511991
 21
892.9450184306645
 31
0.0
  0
LINE
  5
DD
330
1F
100
AcDbEntity
  8
0
  6
Continuous
 62
     7
100
AcDbLine
 10
-1574.857515511991
 20
886.9450184306645
 30
0.0
 11
-1574.857515511991
 21
888.6229217072976
 31
0.0
  0
LINE
  5
DE
330
1F
100
AcDbEntity
  8
0
  6
Continuous
 62
     7
100
AcDbLine
 10
-1573.008401075597
 20
885.9450184306645
 30
0.0
 11
-1573.857515511991
 21
885.9450184306645
 31
0.0
  0
LINE
  5
DF
330
1F
100
AcDbEntity
  8
0
  6
Continuous
 62
     7
100
AcDbLine
 10
-1573.008401075597
 20
885.9450184306645
 30
0.0
 11
-1573.008401075597
 21
881.9450184306645
 31
0.0
  0
LINE
  5
E0
330
1F
100
AcDbEntity
  8
0
  6
Continuous
 62
     2
100
AcDbLine
 10
-1556.008401075597
 20
881.9450184306645
 30
0.0
 11
-1573.008401075597
 21
881.9450184306645
 31
0.0
  0
LINE
  5
E1
330
1F
100
AcDbEntity
  8
0
  6
Continuous
 62
     7
100
AcDbLine
 10
-1556.008401075597
 20
885.9450184306645
 30
0.0
 11
-1556.008401075597
 21
881.9450184306645
 31
0.0
  0
LINE
  5
E2
330
1F
100
AcDbEntity
  8
0
  6
Continuous
 62
     7
100
AcDbLine
 10
-1562.436147321592
 20
880.9450184306644
 30
0.0
 11
-1572.008401075597
 21
880.9450184306644
 31
0.0
  0
LINE
  5
E3
330
1F
100
AcDbEntity
  8
0
  6
Continuous
 62
     2
100
AcDbLine
 10
-1466.179213114655
 20
997.7860511940312
 30
0.0
 11
-1466.179213099784
 21
1030.284206883994
 31
0.0
  0
LINE
  5
E4
330
1F
100
AcDbEntity
  8
0
  6
Continuous
 62
     2
100
AcDbLine
 10
-1459.024886639725
 20
1011.491187041995
 30
0.0
 11
-1460.024886639725
 21
1011.491187041995
 31
0.0
  0
LINE
  5
E5
330
1F
100
AcDbEntity
  8
0
  6
Continuous
 62
     2
100
AcDbLine
 10
-1470.022948284658
 20
1042.984218393908
 30
0.0
 11
-1470.022948284658
 21
1043.984218393908
 31
0.0
  0
LINE
  5
E6
330
1F
100
AcDbEntity
  8
0
  6
Continuous
 62
     2
100
AcDbLine
 10
-1460.024886639725
 20
1032.986156748975
 30
0.0
 11
-1459.024886639725
 21
1032.986156748975
 31
0.0
  0
LINE
  5
E7
330
1F
100
AcDbEntity
  8
0
  6
Continuous
 62
     2
100
AcDbLine
 10
-1542.365003330322
 20
994.1945753355711
 30
0.0
 11
-1473.682053910415
 21
994.1945711749138
 31
0.0
  0
LINE
  5
E8
330
1F
100
AcDbEntity
  8
0
  6
Continuous
 62
     2
100
AcDbLine
 10
-1556.023115511991
 20
995.0840511650689
 30
0.0
 11
-1557.023115511991
 21
995.0840511650689
 31
0.0
  0
LINE
  5
E9
330
1F
100
AcDbEntity
  8
0
  6
Continuous
 62
     2
100
AcDbLine
 10
-1473.174949039419
 20
991.2900115452294
 30
0.0
 11
-1542.873053080274
 21
991.290011576728
 31
0.0
  0
LINE
  5
EA
330
1F
100
AcDbEntity
  8
0
  6
Continuous
 62
     2
100
AcDbLine
 10
-1473.174942716991
 20
990.7903179374282
 30
0.0
 11
-1542.873058838002
 21
990.7903179374208
 31
0.0
  0
LINE
  5
EB
330
1F
100
AcDbEntity
  8
0
  6
Continuous
 62
     2
100
AcDbLine
 10
-1542.365925252644
 20
991.7971398008756
 30
0.0
 11
-1473.68207754584
 21
991.7971400516416
 31
0.0
  0
LINE
  5
EC
330
1F
100
AcDbEntity
  8
0
  6
Continuous
 62
     2
100
AcDbLine
 10
-1548.806095680703
 20
1017.435372342729
 30
0.0
 11
-1548.806095665143
 21
1010.634835578231
 31
0.0
  0
LINE
  5
ED
330
1F
100
AcDbEntity
  8
0
  6
Continuous
 62
     2
100
AcDbLine
 10
-1546.025053867057
 20
985.0859895201357
 30
0.0
 11
-1546.025053867057
 21
984.0859895201357
 31
0.0
  0
LINE
  5
EE
330
1F
100
AcDbEntity
  8
0
  6
Continuous
 62
     2
100
AcDbLine
 10
-1556.023115511991
 20
1016.578996888817
 30
0.0
 11
-1556.023115511991
 21
995.0840511650689
 31
0.0
  0
LINE
  5
EF
330
1F
100
AcDbEntity
  8
0
  6
Continuous
 62
     2
100
AcDbLine
 10
-1548.839731305775
 20
998.3154141024764
 30
0.0
 11
-1549.369093457198
 21
997.7860519510532
 31
0.0
  0
LINE
  5
F0
330
1F
100
AcDbEntity
  8
0
  6
Continuous
 62
     2
100
AcDbLine
 10
-1549.369094019933
 20
1030.28415547869
 30
0.0
 11
-1549.369093457198
 21
997.7860519510532
 31
0.0
  0
LINE
  5
F1
330
1F
100
AcDbEntity
  8
0
  6
Continuous
 62
     2
100
AcDbLine
 10
-1548.839731159149
 20
1029.754794061997
 30
0.0
 11
-1549.369094019933
 21
1030.28415547869
 31
0.0
  0
LINE
  5
F2
330
1F
100
AcDbEntity
  8
0
  6
Continuous
 62
     2
100
AcDbLine
 10
-1566.874407780552
 20
1023.577274134179
 30
0.0
 11
-1563.021392757352
 21
1023.577274134179
 31
0.0
  0
LINE
  5
F3
330
1F
100
AcDbEntity
  8
0
  6
Continuous
 62
     2
100
AcDbLine
 10
-1563.021392757352
 20
1023.577274134179
 30
0.0
 11
-1563.021392757352
 21
1022.577274134179
 31
0.0
  0
LINE
  5
F4
330
1F
100
AcDbEntity
  8
0
  6
Continuous
 62
     7
100
AcDbLine
 10
-1566.874407780552
 20
1022.577274134179
 30
0.0
 11
-1563.021392757352
 21
1022.577274134179
 31
0.0
  0
LINE
  5
F5
330
1F
100
AcDbEntity
  8
0
  6
Continuous
 62
     7
100
AcDbLine
 10
-1557.023115511991
 20
1016.578996888817
 30
0.0
 11
-1557.023115511991
 21
995.0840511650689
 31
0.0
  0
LINE
  5
F6
330
1F
100
AcDbEntity
  8
0
  6
Continuous
 62
     2
100
AcDbLine
 10
-1566.874407780552
 20
1023.577274134179
 30
0.0
 11
-1566.874407780552
 21
1022.577274134179
 31
0.0
  0
LINE
  5
F7
330
1F
100
AcDbEntity
  8
0
  6
Continuous
 62
     2
100
AcDbLine
 10
-1566.874407780552
 20
1042.984218393908
 30
0.0
 11
-1566.874407780552
 21
1043.984218393908
 31
0.0
  0
LINE
  5
F8
330
1F
100
AcDbEntity
  8
0
  6
Continuous
 62
     2
100
AcDbLine
 10
-1549.868787432268
 20
1030.28416110941
 30
0.0
 11
-1549.868789036548
 21
997.7860511940362
 31
0.0
  0
LINE
  5
F9
330
1F
100
AcDbEntity
  8
0
  6
Continuous
 62
     2
100
AcDbLine
 10
-1542.365924600673
 20
1036.27306785403
 30
0.0
 11
-1542.873053081574
 21
1036.780196338617
 31
0.0
  0
LINE
  5
FA
330
1F
100
AcDbEntity
  8
0
  6
Continuous
 62
     2
100
AcDbLine
 10
-1556.023115511991
 20
1016.578996888817
 30
0.0
 11
-1557.023115511991
 21
1016.578996888817
 31
0.0
  0
LINE
  5
FB
330
1F
100
AcDbEntity
  8
0
  6
Continuous
 62
     7
100
AcDbLine
 10
-1574.873115511991
 20
1035.985510662469
 30
0.0
 11
-1574.873115511991
 21
1030.575981865618
 31
0.0
  0
LINE
  5
FC
330
1F
100
AcDbEntity
  8
0
  6
Continuous
 62
     2
100
AcDbLine
 10
-1573.873115511991
 20
1035.985510662469
 30
0.0
 11
-1573.873115511991
 21
1030.575981865618
 31
0.0
  0
LINE
  5
FD
330
1F
100
AcDbEntity
  8
0
  6
Continuous
 62
     2
100
AcDbLine
 10
-1467.208270845791
 20
1029.754793811205
 30
0.0
 11
-1466.678908694004
 21
1030.284155962993
 31
0.0
  0
LINE
  5
FE
330
1F
100
AcDbEntity
  8
0
  6
Continuous
 62
     2
100
AcDbLine
 10
-1473.682077295661
 20
1036.273068112585
 30
0.0
 11
-1473.174948673658
 21
1036.780196336835
 31
0.0
  0
LINE
  5
FF
330
1F
100
AcDbEntity
  8
0
  6
Continuous
 62
     2
100
AcDbLine
 10
-1477.158907075597
 20
1037.279890961227
 30
0.0
 11
-1542.87305401607
 21
1037.279891956892
 31
0.0
  0
LINE
  5
100
330
1F
100
AcDbEntity
  8
0
  6
Continuous
 62
     2
100
AcDbLine
 10
-1473.174943313201
 20
1037.279889976625
 30
0.0
 11
-1477.158907075597
 21
1037.279890961227
 31
0.0
  0
LINE
  5
101
330
1F
100
AcDbEntity
  8
0
  6
Continuous
 62
     2
100
AcDbLine
 10
-1477.158907075597
 20
1036.780196337641
 30
0.0
 11
-1542.873053081574
 21
1036.780196338617
 31
0.0
  0
LINE
  5
102
330
1F
100
AcDbEntity
  8
0
  6
Continuous
 62
     2
100
AcDbLine
 10
-1473.174948673658
 20
1036.780196336835
 30
0.0
 11
-1477.158907075597
 21
1036.780196337641
 31
0.0
  0
LINE
  5
103
330
1F
100
AcDbEntity
  8
0
  6
Continuous
 62
     2
100
AcDbLine
 10
-1542.365924600673
 20
1036.27306785403
 30
0.0
 11
-1473.682077295661
 21
1036.273068112585
 31
0.0
  0
LINE
  5
104
330
1F
100
AcDbEntity
  8
0
  6
Continuous
 62
     2
100
AcDbLine
 10
-1470.022948284658
 20
1042.984218393908
 30
0.0
 11
-1566.874407780552
 21
1042.984218393908
 31
0.0
  0
LINE
  5
105
330
1F
100
AcDbEntity
  8
0
  6
Continuous
 62
     2
100
AcDbLine
 10
-1542.365924701243
 20
1033.875636774809
 30
0.0
 11
-1473.682999068952
 21
1033.875632611765
 31
0.0
  0
LINE
  5
106
330
1F
100
AcDbEntity
  8
0
  6
Continuous
 62
     2
100
AcDbLine
 10
-1573.873115511991
 20
1035.985510662469
 30
0.0
 11
-1574.873115511991
 21
1035.985510662469
 31
0.0
  0
LINE
  5
107
330
1F
100
AcDbEntity
  8
0
  6
Continuous
 62
     2
100
AcDbLine
 10
-1573.873115511991
 20
1030.575981865618
 30
0.0
 11
-1574.873115511991
 21
1030.575981865618
 31
0.0
  0
LINE
  5
108
330
1F
100
AcDbEntity
  8
0
  6
Continuous
 62
     7
100
AcDbLine
 10
-1470.022948284658
 20
1043.984218393908
 30
0.0
 11
-1566.874407780552
 21
1043.984218393908
 31
0.0
  0
LINE
  5
109
330
1F
100
AcDbEntity
  8
0
  6
Continuous
 62
     2
100
AcDbLine
 10
-1467.241906470499
 20
1010.634835571231
 30
0.0
 11
-1467.241905899429
 21
1017.435400125049
 31
0.0
  0
LINE
  5
10A
330
1F
100
AcDbEntity
  8
0
  6
Continuous
 62
     2
100
AcDbLine
 10
-1460.024886639725
 20
1032.986156748975
 30
0.0
 11
-1460.024886639725
 21
1011.491187041995
 31
0.0
  0
LINE
  5
10B
330
1F
100
AcDbEntity
  8
0
  6
Continuous
 62
     7
100
AcDbLine
 10
-1459.024886639725
 20
1032.986156748975
 30
0.0
 11
-1459.024886639725
 21
1011.491187041995
 31
0.0
  0
LINE
  5
10C
330
1F
100
AcDbEntity
  8
0
  6
Continuous
 62
     2
100
AcDbLine
 10
-1545.807923174788
 20
1017.435103956969
 30
0.0
 11
-1545.807923173741
 21
1010.635103957077
 31
0.0
  0
LINE
  5
10D
330
1F
100
AcDbEntity
  8
0
  6
Continuous
 62
     2
100
AcDbLine
 10
-1470.240078976414
 20
1010.635103957077
 30
0.0
 11
-1470.240078977461
 21
1017.435103956969
 31
0.0
  0
LINE
  5
10E
330
1F
100
AcDbEntity
  8
0
  6
Continuous
 62
     2
100
AcDbLine
 10
-1453.026609394365
 20
1004.492909796635
 30
0.0
 11
-1453.026609394365
 21
1005.492909796635
 31
0.0
  0
LINE
  5
10F
330
1F
100
AcDbEntity
  8
0
  6
Continuous
 62
     2
100
AcDbLine
 10
-1449.173594640248
 20
1004.492909796635
 30
0.0
 11
-1449.173594640248
 21
1005.492909796635
 31
0.0
  0
LINE
  5
110
330
1F
100
AcDbEntity
  8
0
  6
Continuous
 62
     2
100
AcDbLine
 10
-1449.173594371687
 20
985.0859895201357
 30
0.0
 11
-1449.173594371687
 21
984.0859895201357
 31
0.0
  0
LINE
  5
111
330
1F
100
AcDbEntity
  8
0
  6
Continuous
 62
     2
100
AcDbLine
 10
-1453.026609394365
 20
1004.492909796635
 30
0.0
 11
-1449.173594640248
 21
1004.492909796635
 31
0.0
  0
LINE
  5
112
330
1F
100
AcDbEntity
  8
0
  6
Continuous
 62
     7
100
AcDbLine
 10
-1453.026609394365
 20
1005.492909796635
 30
0.0
 11
-1449.173594640248
 21
1005.492909796635
 31
0.0
  0
LINE
  5
113
330
1F
100
AcDbEntity
  8
0
  6
Continuous
 62
     7
100
AcDbLine
 10
-1441.174886640248
 20
992.0846972515754
 30
0.0
 11
-1441.174886640248
 21
997.4942017966345
 31
0.0
  0
LINE
  5
114
330
1F
100
AcDbEntity
  8
0
  6
Continuous
 62
     2
100
AcDbLine
 10
-1442.174886640248
 20
992.0846972515754
 30
0.0
 11
-1442.174886640248
 21
997.4942017966345
 31
0.0
  0
LINE
  5
115
330
1F
100
AcDbEntity
  8
0
  6
Continuous
 62
     2
100
AcDbLine
 10
-1442.174886640248
 20
997.4942017966345
 30
0.0
 11
-1441.174886640248
 21
997.4942017966345
 31
0.0
  0
LINE
  5
116
330
1F
100
AcDbEntity
  8
0
  6
Continuous
 62
     2
100
AcDbLine
 10
-1442.174886640248
 20
992.0846972515754
 30
0.0
 11
-1441.174886640248
 21
992.0846972515754
 31
0.0
  0
LINE
  5
117
330
1F
100
AcDbEntity
  8
0
  6
Continuous
 62
     2
100
AcDbLine
 10
-1546.025053867057
 20
985.0859895201357
 30
0.0
 11
-1449.173594371687
 21
985.0859895201357
 31
0.0
  0
LINE
  5
118
330
1F
100
AcDbEntity
  8
0
  6
Continuous
 62
     2
100
AcDbLine
 10
-1467.208270990289
 20
998.3154142473383
 30
0.0
 11
-1466.678908694001
 21
997.7860519510504
 31
0.0
  0
LINE
  5
119
330
1F
100
AcDbEntity
  8
0
  6
Continuous
 62
     2
100
AcDbLine
 10
-1473.68207754584
 20
991.7971400516416
 30
0.0
 11
-1473.174949039419
 21
991.2900115452294
 31
0.0
  0
LINE
  5
11A
330
1F
100
AcDbEntity
  8
0
  6
Continuous
 62
     7
100
AcDbLine
 10
-1546.025053867057
 20
984.0859895201357
 30
0.0
 11
-1449.173594371687
 21
984.0859895201357
 31
0.0
  0
LINE
  5
11B
330
1F
100
AcDbEntity
  8
0
  6
Continuous
 62
     2
100
AcDbLine
 10
-1466.678908694001
 20
997.7860519510504
 30
0.0
 11
-1466.678908694004
 21
1030.284155962993
 31
0.0
  0
LINE
  5
11C
330
1F
100
AcDbEntity
  8
0
  6
Continuous
 62
     2
100
AcDbLine
 10
-1542.365925252644
 20
991.7971398008756
 30
0.0
 11
-1542.873053080274
 21
991.290011576728
 31
0.0
  0
LINE
  5
11D
330
1F
100
AcDbEntity
  8
0
  6
Continuous
 62
     7
100
AcDbLine
 10
-1556.008401075597
 20
885.9450184306645
 30
0.0
 11
-1573.008401075597
 21
885.9450184306645
 31
0.0
  0
LINE
  5
11E
102
{ACAD_REACTORS
330
24F
102
}
330
1F
100
AcDbEntity
  8
0
  6
Continuous
 62
     7
100
AcDbLine
 10
-1202.518068772215
 20
750.3859627135865
 30
0.0
 11
-1202.518068772215
 21
756.9990402773329
 31
0.0
  0
LINE
  5
11F
102
{ACAD_REACTORS
330
24F
102
}
330
1F
100
AcDbEntity
  8
0
  6
Continuous
 62
     7
100
AcDbLine
 10
-1201.184735438884
 20
756.9990402773329
 30
0.0
 11
-1201.184735438884
 21
750.3859627135865
 31
0.0
  0
LINE
  5
120
102
{ACAD_REACTORS
330
24E
102
}
330
1F
100
AcDbEntity
  8
0
  6
Continuous
 62
     7
100
AcDbLine
 10
-1194.182794141984
 20
746.7314238125435
 30
0.0
 11
-1198.51806675461
 21
749.2325426275213
 31
0.0
  0
LINE
  5
121
102
{ACAD_REACTORS
330
24E
102
}
330
1F
100
AcDbEntity
  8
0
  6
Continuous
 62
     7
100
AcDbLine
 10
-1199.184361155979
 20
748.0776272416643
 30
0.0
 11
-1194.849090746636
 21
745.576509697812
 31
0.0
  0
LINE
  5
122
102
{ACAD_REACTORS
330
24E
102
}
330
1F
100
AcDbEntity
  8
0
  6
Continuous
 62
     7
100
AcDbLine
 10
-1199.851400087944
 20
758.5791780434059
 30
0.0
 11
-1199.851400087944
 21
749.2325451711837
 31
0.0
  0
LINE
  5
123
102
{ACAD_REACTORS
330
24E
102
}
330
1F
100
AcDbEntity
  8
0
  6
Continuous
 62
     7
100
AcDbLine
 10
-1198.51806675461
 20
749.2325426275213
 30
0.0
 11
-1198.51806675461
 21
758.5791780434059
 31
0.0
  0
LINE
  5
124
102
{ACAD_REACTORS
330
24D
102
}
330
1F
100
AcDbEntity
  8
0
  6
Continuous
 62
     7
100
AcDbLine
 10
-1193.85140210555
 20
756.4008682223451
 30
0.0
 11
-1196.195857245784
 21
760.4615836412967
 31
0.0
  0
LINE
  5
125
102
{ACAD_REACTORS
330
24D
102
}
330
1F
100
AcDbEntity
  8
0
  6
Continuous
 62
     7
100
AcDbLine
 10
-1191.506946965315
 20
760.4615836412967
 30
0.0
 11
-1193.85140210555
 21
756.4008682223451
 31
0.0
  0
LINE
  5
126
102
{ACAD_REACTORS
330
24D
102
}
330
1F
100
AcDbEntity
  8
0
  6
Continuous
 62
     7
100
AcDbLine
 10
-1190.518079598068
 20
747.2673583273709
 30
0.0
 11
-1190.518079598068
 21
760.1966174288214
 31
0.0
  0
LINE
  5
127
102
{ACAD_REACTORS
330
24D
102
}
330
1F
100
AcDbEntity
  8
0
  6
Continuous
 62
     7
100
AcDbLine
 10
-1191.851412931402
 20
757.1982933399529
 30
0.0
 11
-1191.851412931402
 21
747.2673583273709
 31
0.0
  0
LINE
  5
128
102
{ACAD_REACTORS
330
24D
102
}
330
1F
100
AcDbEntity
  8
0
  6
Continuous
 62
     7
100
AcDbLine
 10
-1193.562726970956
 20
754.2342104757415
 30
0.0
 11
-1191.851412931402
 21
757.1982933399529
 31
0.0
  0
LINE
  5
129
102
{ACAD_REACTORS
330
24D
102
}
330
1F
100
AcDbEntity
  8
0
  6
Continuous
 62
     7
100
AcDbLine
 10
-1195.851391279698
 20
757.1982933399529
 30
0.0
 11
-1194.140077240144
 21
754.2342104757415
 31
0.0
  0
LINE
  5
12A
102
{ACAD_REACTORS
330
24D
102
}
330
1F
100
AcDbEntity
  8
0
  6
Continuous
 62
     7
100
AcDbLine
 10
-1195.851391279698
 20
750.3859627135865
 30
0.0
 11
-1195.851391279698
 21
757.1982933399529
 31
0.0
  0
LINE
  5
12B
102
{ACAD_REACTORS
330
24D
102
}
330
1F
100
AcDbEntity
  8
0
  6
Continuous
 62
     7
100
AcDbLine
 10
-1197.184724613031
 20
760.1966174288215
 30
0.0
 11
-1197.18472461303
 21
750.3859627135865
 31
0.0
  0
LINE
  5
12C
102
{ACAD_REACTORS
330
24C
102
}
330
1F
100
AcDbEntity
  8
0
  6
Continuous
 62
     7
100
AcDbLine
 10
-1187.851404123155
 20
749.9600983331449
 30
0.0
 11
-1186.112313630956
 21
750.9634197709523
 31
0.0
  0
LINE
  5
12D
102
{ACAD_REACTORS
330
24C
102
}
330
1F
100
AcDbEntity
  8
0
  6
Continuous
 62
     7
100
AcDbLine
 10
-1187.851404123155
 20
753.0258348287929
 30
0.0
 11
-1187.851404123155
 21
749.9600983331449
 31
0.0
  0
LINE
  5
12E
102
{ACAD_REACTORS
330
24C
102
}
330
1F
100
AcDbEntity
  8
0
  6
Continuous
 62
     7
100
AcDbLine
 10
-1185.779165328629
 20
753.0258348287929
 30
0.0
 11
-1187.851404123155
 21
753.0258348287929
 31
0.0
  0
LINE
  5
12F
102
{ACAD_REACTORS
330
24C
102
}
330
1F
100
AcDbEntity
  8
0
  6
Continuous
 62
     7
100
AcDbLine
 10
-1187.851404123155
 20
754.3591681621265
 30
0.0
 11
-1185.779165328629
 21
754.3591681621265
 31
0.0
  0
LINE
  5
130
102
{ACAD_REACTORS
330
24C
102
}
330
1F
100
AcDbEntity
  8
0
  6
Continuous
 62
     7
100
AcDbLine
 10
-1187.851404123155
 20
757.4249046577745
 30
0.0
 11
-1187.851404123155
 21
754.3591681621265
 31
0.0
  0
LINE
  5
131
102
{ACAD_REACTORS
330
24C
102
}
330
1F
100
AcDbEntity
  8
0
  6
Continuous
 62
     7
100
AcDbLine
 10
-1186.112313630956
 20
756.4215832199671
 30
0.0
 11
-1187.851404123155
 21
757.4249046577745
 31
0.0
  0
LINE
  5
132
102
{ACAD_REACTORS
330
24C
102
}
330
1F
100
AcDbEntity
  8
0
  6
Continuous
 62
     7
100
AcDbLine
 10
-1188.184922487495
 20
759.1566351007717
 30
0.0
 11
-1185.446017026304
 21
757.5764973346987
 31
0.0
  0
LINE
  5
133
102
{ACAD_REACTORS
330
24C
102
}
330
1F
100
AcDbEntity
  8
0
  6
Continuous
 62
     7
100
AcDbLine
 10
-1189.184737456489
 20
748.8058249475135
 30
0.0
 11
-1189.184737456489
 21
758.5791780434059
 31
0.0
  0
LINE
  5
134
102
{ACAD_REACTORS
330
24C
102
}
330
1F
100
AcDbEntity
  8
0
  6
Continuous
 62
     7
100
AcDbLine
 10
-1185.446017026304
 20
749.8085056562207
 30
0.0
 11
-1188.184922487495
 21
748.2283678901478
 31
0.0
  0
LWPOLYLINE
  5
135
330
1F
100
AcDbEntity
  8
Skizziergeometrie_ISO_
  6
Continuous
 62
     7
100
AcDbPolyline
 90
        2
 70
     0
 43
0.5
 10
-1531.20140210555
 20
808.6925014954597
 10
-1171.20140210555
 20
808.6925014954597
  0
LWPOLYLINE
  5
136
330
1F
100
AcDbEntity
  8
Skizziergeometrie_ISO_
  6
Continuous
 62
     7
100
AcDbPolyline
 90
        2
 70
     0
 43
0.5
 10
-1531.20140210555
 20
798.6925014954597
 10
-1171.20140210555
 20
798.6925014954597
  0
LWPOLYLINE
  5
137
330
1F
100
AcDbEntity
  8
Skizziergeometrie_ISO_
  6
Continuous
 62
     7
100
AcDbPolyline
 90
        2
 70
     0
 43
0.5
 10
-1531.20140210555
 20
788.6925014954597
 10
-1171.20140210555
 20
788.6925014954597
  0
LWPOLYLINE
  5
138
330
1F
100
AcDbEntity
  8
Skizziergeometrie_ISO_
  6
Continuous
 62
     7
100
AcDbPolyline
 90
        2
 70
     0
 43
0.5
 10
-1531.20140210555
 20
778.6925014954597
 10
-1171.20140210555
 20
778.6925014954597
  0
LWPOLYLINE
  5
139
330
1F
100
AcDbEntity
  8
Skizziergeometrie_ISO_
  6
Continuous
 62
     7
100
AcDbPolyline
 90
        2
 70
     0
 43
0.5
 10
-1531.20140210555
 20
768.6925014954597
 10
-1171.20140210555
 20
768.6925014954597
  0
LWPOLYLINE
  5
13A
330
1F
100
AcDbEntity
  8
Skizziergeometrie_ISO_
  6
Continuous
 62
     7
100
AcDbPolyline
 90
        2
 70
     0
 43
0.5
 10
-1531.20140210555
 20
753.6925014954597
 10
-1471.201402105549
 20
753.6925014954597
  0
LWPOLYLINE
  5
13B
330
1F
100
AcDbEntity
  8
Skizziergeometrie_ISO_
  6
Continuous
 62
     7
100
AcDbPolyline
 90
        2
 70
     0
 43
0.5
 10
-1517.20140210555
 20
808.6925014954597
 10
-1517.20140210555
 20
768.6925014954597
  0
LWPOLYLINE
  5
13C
330
1F
100
AcDbEntity
  8
Skizziergeometrie_ISO_
  6
Continuous
 62
     7
100
AcDbPolyline
 90
        2
 70
     0
 43
0.5
 10
-1481.20140210555
 20
808.6925014954597
 10
-1481.20140210555
 20
768.6925014954597
  0
LWPOLYLINE
  5
13D
330
1F
100
AcDbEntity
  8
Skizziergeometrie_ISO_
  6
Continuous
 62
     7
100
AcDbPolyline
 90
        2
 70
     0
 43
0.5
 10
-1471.201402105549
 20
738.6925014954597
 10
-1471.201402105549
 20
768.6925014954597
  0
LWPOLYLINE
  5
13E
330
1F
100
AcDbEntity
  8
Skizziergeometrie_ISO_
  6
Continuous
 62
     7
100
AcDbPolyline
 90
        2
 70
     0
 43
0.5
 10
-1251.20140210555
 20
768.6925014954597
 10
-1251.20140210555
 20
738.6925014954597
  0
LWPOLYLINE
  5
13F
330
1F
100
AcDbEntity
  8
Skizziergeometrie_ISO_
  6
Continuous
 62
     7
100
AcDbPolyline
 90
        2
 70
     0
 43
0.5
 10
-1216.50140210555
 20
768.6925014954597
 10
-1216.50140210555
 20
738.6925014954597
  0
LWPOLYLINE
  5
140
330
1F
100
AcDbEntity
  8
Skizziergeometrie_ISO_
  6
Continuous
 62
     7
100
AcDbPolyline
 90
        2
 70
     0
 43
0.5
 10
-1189.184737456489
 20
748.8058249475135
 10
-1189.184737456489
 20
758.5791780434059
  0
LWPOLYLINE
  5
141
330
1F
100
AcDbEntity
  8
Skizziergeometrie_ISO_
  6
Continuous
 62
     7
100
AcDbPolyline
 90
        2
 70
     0
 43
0.5
 10
-1185.446017026304
 20
749.8085056562207
 10
-1188.184922487495
 20
748.2283678901478
  0
LWPOLYLINE
  5
142
330
1F
100
AcDbEntity
  8
Skizziergeometrie_ISO_
  6
Continuous
 62
     7
100
AcDbPolyline
 90
        2
 70
     0
 43
0.5
 10
-1187.851404123155
 20
749.9600983331449
 10
-1186.112313630956
 20
750.9634197709523
  0
LWPOLYLINE
  5
143
330
1F
100
AcDbEntity
  8
Skizziergeometrie_ISO_
  6
Continuous
 62
     7
100
AcDbPolyline
 90
        2
 70
     0
 43
0.5
 10
-1187.851404123155
 20
753.0258348287929
 10
-1187.851404123155
 20
749.9600983331449
  0
LWPOLYLINE
  5
144
330
1F
100
AcDbEntity
  8
Skizziergeometrie_ISO_
  6
Continuous
 62
     7
100
AcDbPolyline
 90
        2
 70
     0
 43
0.5
 10
-1185.779165328629
 20
753.0258348287929
 10
-1187.851404123155
 20
753.0258348287929
  0
LWPOLYLINE
  5
145
330
1F
100
AcDbEntity
  8
Skizziergeometrie_ISO_
  6
Continuous
 62
     7
100
AcDbPolyline
 90
        2
 70
     0
 43
0.5
 10
-1187.851404123155
 20
754.3591681621265
 10
-1185.779165328629
 20
754.3591681621265
  0
LWPOLYLINE
  5
146
330
1F
100
AcDbEntity
  8
Skizziergeometrie_ISO_
  6
Continuous
 62
     7
100
AcDbPolyline
 90
        2
 70
     0
 43
0.5
 10
-1187.851404123155
 20
757.4249046577745
 10
-1187.851404123155
 20
754.3591681621265
  0
LWPOLYLINE
  5
147
330
1F
100
AcDbEntity
  8
Skizziergeometrie_ISO_
  6
Continuous
 62
     7
100
AcDbPolyline
 90
        2
 70
     0
 43
0.5
 10
-1186.112313630956
 20
756.4215832199671
 10
-1187.851404123155
 20
757.4249046577745
  0
LWPOLYLINE
  5
148
330
1F
100
AcDbEntity
  8
Skizziergeometrie_ISO_
  6
Continuous
 62
     7
100
AcDbPolyline
 90
        2
 70
     0
 43
0.5
 10
-1188.184922487495
 20
759.1566351007717
 10
-1185.446017026304
 20
757.5764973346987
  0
LWPOLYLINE
  5
149
330
1F
100
AcDbEntity
  8
Skizziergeometrie_ISO_
  6
Continuous
 62
     7
100
AcDbPolyline
 90
        2
 70
     0
 43
0.5
 10
-1202.518068772215
 20
750.3859627135865
 10
-1202.518068772215
 20
756.9990402773329
  0
LWPOLYLINE
  5
14A
330
1F
100
AcDbEntity
  8
Skizziergeometrie_ISO_
  6
Continuous
 62
     7
100
AcDbPolyline
 90
        2
 70
     0
 43
0.5
 10
-1201.184735438884
 20
756.9990402773329
 10
-1201.184735438884
 20
750.3859627135865
  0
LWPOLYLINE
  5
14B
330
1F
100
AcDbEntity
  8
Skizziergeometrie_ISO_
  6
Continuous
 62
     7
100
AcDbPolyline
 90
        2
 70
     0
 43
0.5
 10
-1194.849090746636
 20
745.576509697812
 10
-1199.184361155979
 20
748.0776272416643
  0
LWPOLYLINE
  5
14C
330
1F
100
AcDbEntity
  8
Skizziergeometrie_ISO_
  6
Continuous
 62
     7
100
AcDbPolyline
 90
        2
 70
     0
 43
0.5
 10
-1198.51806675461
 20
749.2325426275213
 10
-1194.182794141984
 20
746.7314238125435
  0
LWPOLYLINE
  5
14D
330
1F
100
AcDbEntity
  8
Skizziergeometrie_ISO_
  6
Continuous
 62
     7
100
AcDbPolyline
 90
        2
 70
     0
 43
0.5
 10
-1198.51806675461
 20
758.5791780434059
 10
-1198.51806675461
 20
749.2325426275213
  0
LWPOLYLINE
  5
14E
330
1F
100
AcDbEntity
  8
Skizziergeometrie_ISO_
  6
Continuous
 62
     7
100
AcDbPolyline
 90
        2
 70
     0
 43
0.5
 10
-1199.851400087944
 20
749.2325451711837
 10
-1199.851400087944
 20
758.5791780434059
  0
LWPOLYLINE
  5
14F
330
1F
100
AcDbEntity
  8
Skizziergeometrie_ISO_
  6
Continuous
 62
     7
100
AcDbPolyline
 90
        2
 70
     0
 43
0.5
 10
-1191.506946965315
 20
760.4615836412967
 10
-1193.85140210555
 20
756.4008682223451
  0
LWPOLYLINE
  5
150
330
1F
100
AcDbEntity
  8
Skizziergeometrie_ISO_
  6
Continuous
 62
     7
100
AcDbPolyline
 90
        2
 70
     0
 43
0.5
 10
-1190.518079598068
 20
747.2673583273709
 10
-1190.518079598068
 20
760.1966174288214
  0
LWPOLYLINE
  5
151
330
1F
100
AcDbEntity
  8
Skizziergeometrie_ISO_
  6
Continuous
 62
     7
100
AcDbPolyline
 90
        2
 70
     0
 43
0.5
 10
-1196.195857245784
 20
760.4615836412967
 10
-1193.85140210555
 20
756.4008682223451
  0
LWPOLYLINE
  5
152
330
1F
100
AcDbEntity
  8
Skizziergeometrie_ISO_
  6
Continuous
 62
     7
100
AcDbPolyline
 90
        2
 70
     0
 43
0.5
 10
-1197.18472461303
 20
750.3859627135865
 10
-1197.184724613031
 20
760.1966174288215
  0
LWPOLYLINE
  5
153
330
1F
100
AcDbEntity
  8
Skizziergeometrie_ISO_
  6
Continuous
 62
     7
100
AcDbPolyline
 90
        2
 70
     0
 43
0.5
 10
-1193.85140210555
 20
743.6925014954581
 10
-1210.684272655831
 20
753.4037729667771
  0
LWPOLYLINE
  5
154
330
1F
100
AcDbEntity
  8
Skizziergeometrie_ISO_
  6
Continuous
 62
     7
100
AcDbPolyline
 90
        2
 70
     0
 43
0.5
 10
-1177.018531555268
 20
753.4037729667771
 10
-1193.85140210555
 20
743.6925014954581
  0
LWPOLYLINE
  5
155
330
1F
100
AcDbEntity
  8
Skizziergeometrie_ISO_
  6
Continuous
 62
     7
100
AcDbPolyline
 90
        2
 70
     0
 43
0.5
 10
-1193.85140210555
 20
763.6925014954613
 10
-1177.018531555268
 20
753.9812300241423
  0
LWPOLYLINE
  5
156
330
1F
100
AcDbEntity
  8
Skizziergeometrie_ISO_
  6
Continuous
 62
     7
100
AcDbPolyline
 90
        2
 70
     0
 43
0.5
 10
-1210.684272655831
 20
753.9812300241423
 10
-1193.85140210555
 20
763.6925014954613
  0
LWPOLYLINE
  5
157
330
1F
100
AcDbEntity
  8
Skizziergeometrie_ISO_
  6
Continuous
 62
     7
100
AcDbPolyline
 90
        2
 70
     0
 43
0.5
 10
-1195.851391279698
 20
757.1982933399529
 10
-1195.851391279698
 20
750.3859627135865
  0
LWPOLYLINE
  5
158
330
1F
100
AcDbEntity
  8
Skizziergeometrie_ISO_
  6
Continuous
 62
     7
100
AcDbPolyline
 90
        2
 70
     0
 43
0.5
 10
-1194.140077240144
 20
754.2342104757415
 10
-1195.851391279698
 20
757.1982933399529
  0
LWPOLYLINE
  5
159
330
1F
100
AcDbEntity
  8
Skizziergeometrie_ISO_
  6
Continuous
 62
     7
100
AcDbPolyline
 90
        2
 70
     0
 43
0.5
 10
-1191.851412931402
 20
757.1982933399529
 10
-1193.562726970956
 20
754.2342104757415
  0
LWPOLYLINE
  5
15A
330
1F
100
AcDbEntity
  8
Skizziergeometrie_ISO_
  6
Continuous
 62
     7
100
AcDbPolyline
 90
        2
 70
     0
 43
0.5
 10
-1191.851412931402
 20
747.2673583273709
 10
-1191.851412931402
 20
757.1982933399529
  0
LWPOLYLINE
  5
15B
330
1F
100
AcDbEntity
  8
Skizziergeometrie_ISO_
  6
Continuous
 62
     7
100
AcDbPolyline
 90
        2
 70
     0
 43
0.5
 10
-1531.20140210555
 20
808.6925014954597
 10
-1531.20140210555
 20
738.6925014954597
  0
LINE
  5
15C
330
1F
100
AcDbEntity
  8
0
  6
Continuous
 62
     2
100
AcDbLine
 10
-1535.527790370189
 20
1030.285639693209
 30
0.0
 11
-1527.126686694064
 21
1025.48352954615
 31
0.0
  0
LINE
  5
15D
330
1F
100
AcDbEntity
  8
0
  6
Continuous
 62
     2
100
AcDbLine
 10
-1535.857987487306
 20
1020.39258191685
 30
0.0
 11
-1544.258999470066
 21
1025.194532437252
 31
0.0
  0
LINE
  5
15E
330
1F
100
AcDbEntity
  8
0
  6
Continuous
 62
     2
100
AcDbLine
 10
-1527.126686694064
 20
1025.194693652031
 30
0.0
 11
-1535.527790370189
 21
1020.392583504971
 31
0.0
  0
LINE
  5
15F
330
1F
100
AcDbEntity
  8
0
  6
Continuous
 62
     2
100
AcDbLine
 10
-1527.544440185526
 20
1025.33911159909
 30
0.0
 11
-1535.69289031794
 21
1029.996803799091
 31
0.0
  0
LINE
  5
160
330
1F
100
AcDbEntity
  8
0
  6
Continuous
 62
     2
100
AcDbLine
 10
-1535.69289031794
 20
1020.681419399091
 30
0.0
 11
-1527.544440185526
 21
1025.33911159909
 31
0.0
  0
LINE
  5
161
330
1F
100
AcDbEntity
  8
0
  6
Continuous
 62
     2
100
AcDbLine
 10
-1531.534328905515
 20
1023.633231090652
 30
0.0
 11
-1532.86509810553
 21
1022.872613410502
 31
0.0
  0
LINE
  5
162
330
1F
100
AcDbEntity
  8
0
  6
Continuous
 62
     2
100
AcDbLine
 10
-1532.69865961794
 20
1023.734162956095
 30
0.0
 11
-1531.86683653035
 21
1024.209577640345
 31
0.0
  0
LINE
  5
163
330
1F
100
AcDbEntity
  8
0
  6
Continuous
 62
     2
100
AcDbLine
 10
-1532.69865961794
 20
1025.006419299091
 30
0.0
 11
-1532.69865961794
 21
1023.734162956095
 31
0.0
  0
LINE
  5
164
330
1F
100
AcDbEntity
  8
0
  6
Continuous
 62
     2
100
AcDbLine
 10
-1532.69865961794
 20
1025.006419299091
 30
0.0
 11
-1531.700582717941
 21
1025.006419299091
 31
0.0
  0
LINE
  5
165
330
1F
100
AcDbEntity
  8
0
  6
Continuous
 62
     2
100
AcDbLine
 10
-1535.69289031794
 20
1026.63853514303
 30
0.0
 11
-1534.650241101384
 21
1028.444456560578
 31
0.0
  0
LINE
  5
166
330
1F
100
AcDbEntity
  8
0
  6
Continuous
 62
     2
100
AcDbLine
 10
-1532.69865961794
 20
1025.671803899091
 30
0.0
 11
-1531.700582717941
 21
1025.671803899091
 31
0.0
  0
LINE
  5
167
330
1F
100
AcDbEntity
  8
0
  6
Continuous
 62
     2
100
AcDbLine
 10
-1531.866836530354
 20
1026.46858934023
 30
0.0
 11
-1532.69865961794
 21
1026.94406330692
 31
0.0
  0
LINE
  5
168
330
1F
100
AcDbEntity
  8
0
  6
Continuous
 62
     2
100
AcDbLine
 10
-1532.865098105528
 20
1027.805609787678
 30
0.0
 11
-1531.53432890555
 21
1027.044935889941
 31
0.0
  0
LINE
  5
169
330
1F
100
AcDbEntity
  8
0
  6
Continuous
 62
     2
100
AcDbLine
 10
-1534.69481341794
 20
1027.036485843691
 30
0.0
 11
-1534.69481341794
 21
1022.400112787603
 31
0.0
  0
LINE
  5
16A
330
1F
100
AcDbEntity
  8
0
  6
Continuous
 62
     2
100
AcDbLine
 10
-1533.364044217941
 20
1027.517436512828
 30
0.0
 11
-1533.364044217941
 21
1023.160786685353
 31
0.0
  0
LINE
  5
16B
330
1F
100
AcDbEntity
  8
0
  6
Continuous
 62
     2
100
AcDbLine
 10
-1534.69481341794
 20
1027.036485843691
 30
0.0
 11
-1535.548830326218
 21
1025.55728516803
 31
0.0
  0
LINE
  5
16C
330
1F
100
AcDbEntity
  8
0
  6
Continuous
 62
     2
100
AcDbLine
 10
-1532.69865961794
 20
1026.94406330692
 30
0.0
 11
-1532.69865961794
 21
1025.671803899091
 31
0.0
  0
LINE
  5
16D
330
1F
100
AcDbEntity
  8
0
  6
Continuous
 62
     2
100
AcDbLine
 10
-1534.02942881794
 20
1028.278110410578
 30
0.0
 11
-1534.02942881794
 21
1022.400112787603
 31
0.0
  0
LINE
  5
16E
330
1F
100
AcDbEntity
  8
0
  6
Continuous
 62
     2
100
AcDbLine
 10
-1535.69289031794
 20
1029.996803799091
 30
0.0
 11
-1543.841522382759
 21
1025.33911159909
 31
0.0
  0
LINE
  5
16F
330
1F
100
AcDbEntity
  8
0
  6
Continuous
 62
     2
100
AcDbLine
 10
-1536.735539534496
 20
1028.444456560578
 30
0.0
 11
-1535.69289031794
 21
1026.63853514303
 31
0.0
  0
LINE
  5
170
330
1F
100
AcDbEntity
  8
0
  6
Continuous
 62
     2
100
AcDbLine
 10
-1535.836950309663
 20
1025.55728516803
 30
0.0
 11
-1536.690967217941
 21
1027.036485843691
 31
0.0
  0
LINE
  5
171
330
1F
100
AcDbEntity
  8
0
  6
Continuous
 62
     2
100
AcDbLine
 10
-1536.191836430354
 20
1021.541421496524
 30
0.0
 11
-1538.35424404277
 21
1022.777436202974
 31
0.0
  0
LINE
  5
172
330
1F
100
AcDbEntity
  8
0
  6
Continuous
 62
     2
100
AcDbLine
 10
-1538.02173641794
 20
1023.353782752671
 30
0.0
 11
-1535.859328805501
 21
1022.117768046207
 31
0.0
  0
LINE
  5
173
330
1F
100
AcDbEntity
  8
0
  6
Continuous
 62
     2
100
AcDbLine
 10
-1543.841522382759
 20
1025.33911159909
 30
0.0
 11
-1535.69289031794
 21
1020.681419399091
 31
0.0
  0
LINE
  5
174
330
1F
100
AcDbEntity
  8
0
  6
Continuous
 62
     2
100
AcDbLine
 10
-1537.356351817941
 20
1028.278110410578
 30
0.0
 11
-1537.356351817941
 21
1023.921404365494
 31
0.0
  0
LINE
  5
175
330
1F
100
AcDbEntity
  8
0
  6
Continuous
 62
     2
100
AcDbLine
 10
-1536.690967217941
 20
1027.036485843691
 30
0.0
 11
-1536.690967217941
 21
1023.921404365494
 31
0.0
  0
LINE
  5
176
330
1F
100
AcDbEntity
  8
0
  6
Continuous
 62
     2
100
AcDbLine
 10
-1539.35250561794
 20
1026.756818832687
 30
0.0
 11
-1539.35250561794
 21
1023.921404365494
 31
0.0
  0
LINE
  5
177
330
1F
100
AcDbEntity
  8
0
  6
Continuous
 62
     2
100
AcDbLine
 10
-1540.01789021794
 20
1026.756818832687
 30
0.0
 11
-1540.01789021794
 21
1023.921404365494
 31
0.0
  0
LINE
  5
178
330
1F
100
AcDbEntity
  8
0
  6
Continuous
 62
     2
100
AcDbLine
 10
-1538.02173641794
 20
1027.524570294225
 30
0.0
 11
-1538.02173641794
 21
1023.353782752671
 31
0.0
  0
LINE
  5
179
330
1F
100
AcDbEntity
  8
0
  6
Continuous
 62
     2
100
AcDbLine
 10
-1538.68712101794
 20
1027.524570294225
 30
0.0
 11
-1538.68712101794
 21
1023.353782752672
 31
0.0
  0
LINE
  5
17A
330
1F
100
AcDbEntity
  8
0
  6
Continuous
 62
     2
100
AcDbLine
 10
-1544.258999470066
 20
1025.48369076093
 30
0.0
 11
-1535.857987487306
 21
1030.28564128133
 31
0.0
  0
ARC
  5
17B
330
1F
100
AcDbEntity
  8
0
  6
Continuous
 62
     7
100
AcDbCircle
 10
-1376.701402129327
 20
1010.613900687807
 30
0.0
 40
81.99999997615079
100
AcDbArc
 50
351.0436483932525
 51
0.01481533969164
  0
ARC
  5
17C
330
1F
100
AcDbEntity
  8
0
  6
Continuous
 62
     2
100
AcDbCircle
 10
-1376.705675942752
 20
1010.622633343067
 30
0.0
 40
79.10897196536098
100
AcDbArc
 50
351.0499706525744
 51
0.00881751279146
  0
ARC
  5
17D
330
1F
100
AcDbEntity
  8
0
  6
Continuous
 62
     7
100
AcDbCircle
 10
-1376.701402105548
 20
1017.456306922168
 30
0.0
 40
81.99999999999828
100
AcDbArc
 50
8.95573743109436
 51
11.55074421072549
  0
ARC
  5
17E
330
1F
100
AcDbEntity
  8
0
  6
Continuous
 62
     7
100
AcDbCircle
 10
-1299.301838588995
 20
1033.274287091318
 30
0.0
 40
3.000627081114897
100
AcDbArc
 50
11.56081899217954
 51
87.98995048656435
  0
ARC
  5
17F
330
1F
100
AcDbEntity
  8
0
  6
Continuous
 62
     7
100
AcDbCircle
 10
-1315.201402105549
 20
985.0859895201316
 30
0.0
 40
1.0
100
AcDbArc
 50
270.0
 51
0.0
  0
ARC
  5
180
330
1F
100
AcDbEntity
  8
0
  6
Continuous
 62
     7
100
AcDbCircle
 10
-1313.701404153814
 20
990.7903181401564
 30
0.0
 40
0.4999979517350174
100
AcDbArc
 50
91.99976989565522
 51
180.0000232323762
  0
ARC
  5
181
330
1F
100
AcDbEntity
  8
0
  6
Continuous
 62
     7
100
AcDbCircle
 10
-1315.201402105549
 20
1023.577274134174
 30
0.0
 40
1.0
100
AcDbArc
 50
270.0
 51
0.0
  0
ARC
  5
182
330
1F
100
AcDbEntity
  8
0
  6
Continuous
 62
     7
100
AcDbCircle
 10
-1315.201402105549
 20
1042.984218393904
 30
0.0
 40
1.0
100
AcDbArc
 50
0.0
 51
90.0
  0
ARC
  5
183
330
1F
100
AcDbEntity
  8
0
  6
Continuous
 62
     7
100
AcDbCircle
 10
-1310.201402105549
 20
1026.185103957017
 30
0.0
 40
1.0
100
AcDbArc
 50
270.0
 51
0.0
  0
ARC
  5
184
330
1F
100
AcDbEntity
  8
0
  6
Continuous
 62
     7
100
AcDbCircle
 10
-1310.201402105549
 20
1041.185103957017
 30
0.0
 40
1.0
100
AcDbArc
 50
0.0
 51
90.0
  0
ARC
  5
185
330
1F
100
AcDbEntity
  8
0
  6
Continuous
 62
     7
100
AcDbCircle
 10
-1310.201402105549
 20
987.1850777728661
 30
0.0
 40
1.0
100
AcDbArc
 50
270.0
 51
0.0
  0
ARC
  5
186
330
1F
100
AcDbEntity
  8
0
  6
Continuous
 62
     7
100
AcDbCircle
 10
-1376.701402129322
 20
1017.456307226251
 30
0.0
 40
81.99999997614525
100
AcDbArc
 50
359.9851846602944
 51
8.95573721862699
  0
ARC
  5
187
330
1F
100
AcDbEntity
  8
0
  6
Continuous
 62
     2
100
AcDbCircle
 10
-1376.705849899802
 20
1017.447596318781
 30
0.0
 40
79.10914590858667
100
AcDbArc
 50
359.9911466337852
 51
8.94999351693121
  0
ARC
  5
188
330
1F
100
AcDbEntity
  8
0
  6
Continuous
 62
     7
100
AcDbCircle
 10
-1376.701402105553
 20
1010.613900991871
 30
0.0
 40
82.00000000000387
100
AcDbArc
 50
348.4492587819839
 51
351.0436481807985
  0
ARC
  5
189
330
1F
100
AcDbEntity
  8
0
  6
Continuous
 62
     7
100
AcDbCircle
 10
-1299.301294577839
 20
994.7952776331493
 30
0.0
 40
2.999965251487841
100
AcDbArc
 50
271.9999567384199
 51
348.4492155204523
  0
ARC
  5
18A
330
1F
100
AcDbEntity
  8
0
  6
Continuous
 62
     7
100
AcDbCircle
 10
-1442.159286640132
 20
886.9450184305479
 30
0.0
 40
0.9999999998833573
100
AcDbArc
 50
269.9999999934081
 51
0.00000000668313
  0
ARC
  5
18B
330
1F
100
AcDbEntity
  8
0
  6
Continuous
 62
     7
100
AcDbCircle
 10
-1470.224479014105
 20
869.4450213375093
 30
0.0
 40
3.000000117884384
100
AcDbArc
 50
270.000001456172
 51
357.9999697581773
  0
ARC
  5
18C
330
1F
100
AcDbEntity
  8
0
  6
Continuous
 62
     7
100
AcDbCircle
 10
-1444.008401076283
 20
881.9450184306645
 30
0.0
 40
1.000000000000114
100
AcDbArc
 50
270.0
 51
0.0
  0
ARC
  5
18D
330
1F
100
AcDbEntity
  8
0
  6
Continuous
 62
     7
100
AcDbCircle
 10
-1459.008401076282
 20
881.9450184306645
 30
0.0
 40
1.0
100
AcDbArc
 50
180.0
 51
270.0
  0
ARC
  5
18E
330
1F
100
AcDbEntity
  8
0
  6
Continuous
 62
     7
100
AcDbCircle
 10
-1460.009286639726
 20
886.9450184306645
 30
0.0
 40
1.0
100
AcDbArc
 50
270.0
 51
0.0
  0
ARC
  5
18F
330
1F
100
AcDbEntity
  8
0
  6
Continuous
 62
     7
100
AcDbCircle
 10
-1466.163613418196
 20
885.4450185729991
 30
0.0
 40
0.4999998576655356
100
AcDbArc
 50
89.99996521673899
 51
178.0000109296226
  0
ARC
  5
190
330
1F
100
AcDbEntity
  8
0
  6
Continuous
 62
     7
100
AcDbCircle
 10
-1545.792324730991
 20
869.4450168145502
 30
0.0
 40
2.999998367114121
100
AcDbArc
 50
181.9999449753366
 51
270.0000314977978
  0
ARC
  5
191
330
1F
100
AcDbEntity
  8
0
  6
Continuous
 62
     7
100
AcDbCircle
 10
-1573.85751551199
 20
886.9450184306661
 30
0.0
 40
1.000000000001137
100
AcDbArc
 50
180.0000000000912
 51
269.9999999999349
  0
ARC
  5
192
330
1F
100
AcDbEntity
  8
0
  6
Continuous
 62
     7
100
AcDbCircle
 10
-1549.853186698326
 20
885.4450193451319
 30
0.0
 40
0.4999990855334357
100
AcDbArc
 50
2.1300631473255
 51
90.00008410417946
  0
ARC
  5
193
330
1F
100
AcDbEntity
  8
0
  6
Continuous
 62
     2
100
AcDbCircle
 10
-1570.41373792201
 20
881.9254557756125
 30
0.0
 40
8.037612156309933
100
AcDbArc
 50
0.00000000002836
 51
0.13945169975638
  0
ARC
  5
194
330
1F
100
AcDbEntity
  8
0
  6
Continuous
 62
     7
100
AcDbCircle
 10
-1557.008401075597
 20
881.9450184306645
 30
0.0
 40
1.000000000000114
100
AcDbArc
 50
270.0
 51
0.0
  0
ARC
  5
195
330
1F
100
AcDbEntity
  8
0
  6
Continuous
 62
     7
100
AcDbCircle
 10
-1572.008401075597
 20
881.9450184306645
 30
0.0
 40
1.0
100
AcDbArc
 50
180.0
 51
270.0
  0
ARC
  5
196
330
1F
100
AcDbEntity
  8
0
  6
Continuous
 62
     2
100
AcDbCircle
 10
-1453.026609394365
 20
1011.491187041995
 30
0.0
 40
6.998277245359986
100
AcDbArc
 50
180.0
 51
270.0
  0
ARC
  5
197
330
1F
100
AcDbEntity
  8
0
  6
Continuous
 62
     7
100
AcDbCircle
 10
-1453.026609394365
 20
1011.491187041995
 30
0.0
 40
5.998277245359986
100
AcDbArc
 50
180.0
 51
270.0
  0
ARC
  5
198
330
1F
100
AcDbEntity
  8
0
  6
Continuous
 62
     7
100
AcDbCircle
 10
-1470.022948288905
 20
1032.986156744729
 30
0.0
 40
10.99806164917982
100
AcDbArc
 50
0.00000002211994
 51
89.99999997787533
  0
ARC
  5
199
330
1F
100
AcDbEntity
  8
0
  6
Continuous
 62
     2
100
AcDbCircle
 10
-1470.022948288905
 20
1032.986156744729
 30
0.0
 40
9.998061649179817
100
AcDbArc
 50
0.00000002433237
 51
89.99999997566242
  0
ARC
  5
19A
330
1F
100
AcDbEntity
  8
0
  6
Continuous
 62
     7
100
AcDbCircle
 10
-1546.025053867057
 20
995.0840511650689
 30
0.0
 40
10.99806164493384
100
AcDbArc
 50
180.0
 51
270.0
  0
ARC
  5
19B
330
1F
100
AcDbEntity
  8
0
  6
DASHED
 62
     3
100
AcDbCircle
 10
-1546.025053867055
 20
995.0840511650655
 30
0.0
 40
10.29806164492697
100
AcDbArc
 50
179.999999976379
 51
270.0000000236236
  0
ARC
  5
19C
330
1F
100
AcDbEntity
  8
0
  6
Continuous
 62
     2
100
AcDbCircle
 10
-1546.025053867057
 20
995.0840511650689
 30
0.0
 40
9.998061644933841
100
AcDbArc
 50
180.0
 51
270.0
  0
ARC
  5
19D
330
1F
100
AcDbEntity
  8
0
  6
Continuous
 62
     2
100
AcDbCircle
 10
-1563.021392757352
 20
1016.578996888817
 30
0.0
 40
6.998277245361123
100
AcDbArc
 50
0.0
 51
90.0
  0
ARC
  5
19E
330
1F
100
AcDbEntity
  8
0
  6
Continuous
 62
     2
100
AcDbCircle
 10
-1542.873662037536
 20
997.7854449366965
 30
0.0
 40
6.995127025283687
100
AcDbArc
 50
179.9950342593095
 51
270.0049406947751
  0
ARC
  5
19F
330
1F
100
AcDbEntity
  8
0
  6
Continuous
 62
     2
100
AcDbCircle
 10
-1542.873661067383
 20
997.7854439665426
 30
0.0
 40
6.495432418269289
100
AcDbArc
 50
179.9946370088591
 51
270.0053630140604
  0
ARC
  5
1A0
330
1F
100
AcDbEntity
  8
0
  6
Continuous
 62
     2
100
AcDbCircle
 10
-1542.873660246242
 20
1030.284764771088
 30
0.0
 40
6.995127212073355
100
AcDbArc
 50
89.99503448196711
 51
180.0049444799787
  0
ARC
  5
1A1
330
1F
100
AcDbEntity
  8
0
  6
Continuous
 62
     2
100
AcDbCircle
 10
-1542.873661349319
 20
1030.284763668011
 30
0.0
 40
6.495432699086833
100
AcDbArc
 50
89.99463451069828
 51
180.0053647975276
  0
ARC
  5
1A2
330
1F
100
AcDbEntity
  8
0
  6
Continuous
 62
     7
100
AcDbCircle
 10
-1563.021392757352
 20
1016.578996888817
 30
0.0
 40
5.998277245361123
100
AcDbArc
 50
0.0
 51
90.0
  0
ARC
  5
1A3
330
1F
100
AcDbEntity
  8
0
  6
Continuous
 62
     7
100
AcDbCircle
 10
-1566.874407780552
 20
1035.985510662469
 30
0.0
 40
7.998707731438799
100
AcDbArc
 50
90.0
 51
180.0
  0
ARC
  5
1A4
330
1F
100
AcDbEntity
  8
0
  6
Continuous
 62
     2
100
AcDbCircle
 10
-1566.874407780552
 20
1035.985510662469
 30
0.0
 40
6.998707731438799
100
AcDbArc
 50
90.0
 51
180.0
  0
ARC
  5
1A5
330
1F
100
AcDbEntity
  8
0
  6
Continuous
 62
     7
100
AcDbCircle
 10
-1566.874407780552
 20
1030.575981865618
 30
0.0
 40
7.998707731439026
100
AcDbArc
 50
180.0
 51
270.0
  0
ARC
  5
1A6
330
1F
100
AcDbEntity
  8
0
  6
Continuous
 62
     2
100
AcDbCircle
 10
-1566.874407780552
 20
1030.575981865618
 30
0.0
 40
6.998707731439026
100
AcDbArc
 50
180.0
 51
270.0
  0
ARC
  5
1A7
330
1F
100
AcDbEntity
  8
0
  6
Continuous
 62
     2
100
AcDbCircle
 10
-1473.174340108308
 20
1030.284762972005
 30
0.0
 40
6.995127030627444
100
AcDbArc
 50
359.9954451869203
 51
90.00494073866756
  0
ARC
  5
1A8
330
1F
100
AcDbEntity
  8
0
  6
Continuous
 62
     2
100
AcDbCircle
 10
-1473.174341083555
 20
1030.284763947246
 30
0.0
 40
6.495432418005284
100
AcDbArc
 50
359.9946370111323
 51
90.00535951209872
  0
ARC
  5
1A9
330
1F
100
AcDbEntity
  8
0
  6
Continuous
 62
     7
100
AcDbCircle
 10
-1449.17359437518
 20
997.4942020617018
 30
0.0
 40
7.998707734932172
100
AcDbArc
 50
359.9999981012883
 51
90.00000189871578
  0
ARC
  5
1AA
330
1F
100
AcDbEntity
  8
0
  6
Continuous
 62
     2
100
AcDbCircle
 10
-1449.17359437518
 20
997.4942020617018
 30
0.0
 40
6.998707734932173
100
AcDbArc
 50
359.9999978299937
 51
90.00000217001097
  0
ARC
  5
1AB
330
1F
100
AcDbEntity
  8
0
  6
Continuous
 62
     7
100
AcDbCircle
 10
-1449.173594371687
 20
992.0846972515754
 30
0.0
 40
7.998707731439708
100
AcDbArc
 50
270.0
 51
0.0
  0
ARC
  5
1AC
330
1F
100
AcDbEntity
  8
0
  6
Continuous
 62
     2
100
AcDbCircle
 10
-1473.174340112925
 20
997.7854449360146
 30
0.0
 40
6.995127024542487
100
AcDbArc
 50
269.9950641825916
 51
0.0049657462353
  0
ARC
  5
1AD
330
1F
100
AcDbEntity
  8
0
  6
Continuous
 62
     2
100
AcDbCircle
 10
-1473.174341098851
 20
997.7854439500866
 30
0.0
 40
6.495432433307308
100
AcDbArc
 50
269.9946373964861
 51
0.00536313626122
  0
ARC
  5
1AE
330
1F
100
AcDbEntity
  8
0
  6
Continuous
 62
     2
100
AcDbCircle
 10
-1449.173594371687
 20
992.0846972515754
 30
0.0
 40
6.998707731439708
100
AcDbArc
 50
270.0
 51
0.0
  0
ARC
  5
1AF
102
{ACAD_REACTORS
330
24F
102
}
330
1F
100
AcDbEntity
  8
0
  6
Continuous
 62
     7
100
AcDbCircle
 10
-1201.85140210555
 20
756.9990402773329
 30
0.0
 40
0.6666666666660603
100
AcDbArc
 50
0.0
 51
180.0
  0
ARC
  5
1B0
102
{ACAD_REACTORS
330
24F
102
}
330
1F
100
AcDbEntity
  8
0
  6
Continuous
 62
     7
100
AcDbCircle
 10
-1201.85140210555
 20
750.3859627135865
 30
0.0
 40
0.6666666666649235
100
AcDbArc
 50
180.0
 51
0.0
  0
ARC
  5
1B1
102
{ACAD_REACTORS
330
24E
102
}
330
1F
100
AcDbEntity
  8
0
  6
Continuous
 62
     7
100
AcDbCircle
 10
-1194.51594244431
 20
746.1539667551777
 30
0.0
 40
0.6666666666665145
100
AcDbArc
 50
240.0183606311832
 51
60.01836063118322
  0
ARC
  5
1B2
102
{ACAD_REACTORS
330
24E
102
}
330
1F
100
AcDbEntity
  8
0
  6
Continuous
 62
     7
100
AcDbCircle
 10
-1198.518062350487
 20
749.2325451711837
 30
0.0
 40
1.333337737456986
100
AcDbArc
 50
180.0
 51
240.0183606311468
  0
ARC
  5
1B3
102
{ACAD_REACTORS
330
24E
102
}
330
1F
100
AcDbEntity
  8
0
  6
Continuous
 62
     7
100
AcDbCircle
 10
-1199.184733421278
 20
758.5791780434059
 30
0.0
 40
0.6666666666681067
100
AcDbArc
 50
0.0
 51
180.0
  0
ARC
  5
1B4
102
{ACAD_REACTORS
330
24D
102
}
330
1F
100
AcDbEntity
  8
0
  6
Continuous
 62
     7
100
AcDbCircle
 10
-1191.04801202302
 20
760.1966174288214
 30
0.0
 40
0.5299324249519941
100
AcDbArc
 50
0.0
 51
149.9999999999248
  0
ARC
  5
1B5
102
{ACAD_REACTORS
330
24D
102
}
330
1F
100
AcDbEntity
  8
0
  6
Continuous
 62
     7
100
AcDbCircle
 10
-1191.184746264736
 20
747.2673583273709
 30
0.0
 40
0.666666666665833
100
AcDbArc
 50
180.0
 51
0.0
  0
ARC
  5
1B6
102
{ACAD_REACTORS
330
24D
102
}
330
1F
100
AcDbEntity
  8
0
  6
Continuous
 62
     7
100
AcDbCircle
 10
-1193.85140210555
 20
754.4008771424081
 30
0.0
 40
0.3333333333324884
100
AcDbArc
 50
210.0000000000763
 51
329.9999999999432
  0
ARC
  5
1B7
102
{ACAD_REACTORS
330
24D
102
}
330
1F
100
AcDbEntity
  8
0
  6
Continuous
 62
     7
100
AcDbCircle
 10
-1196.518057946364
 20
750.3859627135865
 30
0.0
 40
0.6666666666660603
100
AcDbArc
 50
180.0
 51
0.0
  0
ARC
  5
1B8
102
{ACAD_REACTORS
330
24D
102
}
330
1F
100
AcDbEntity
  8
0
  6
Continuous
 62
     7
100
AcDbCircle
 10
-1196.65479218808
 20
760.1966174288215
 30
0.0
 40
0.5299324249501564
100
AcDbArc
 50
30.00000000001537
 51
180.0
  0
ARC
  5
1B9
102
{ACAD_REACTORS
330
24C
102
}
330
1F
100
AcDbEntity
  8
0
  6
Continuous
 62
     7
100
AcDbCircle
 10
-1185.779165328629
 20
750.3859627135865
 30
0.0
 40
0.66666666666606
100
AcDbArc
 50
299.9816393687491
 51
119.9816393688845
  0
ARC
  5
1BA
102
{ACAD_REACTORS
330
24C
102
}
330
1F
100
AcDbEntity
  8
0
  6
Continuous
 62
     7
100
AcDbCircle
 10
-1185.779165328629
 20
753.6925014954597
 30
0.0
 40
0.6666666666668561
100
AcDbArc
 50
270.0
 51
90.0
  0
ARC
  5
1BB
330
1F
100
AcDbEntity
  8
0
  6
Continuous
 62
     7
100
AcDbCircle
 10
-1185.779165328629
 20
756.9990402773329
 30
0.0
 40
0.666666666666969
100
AcDbArc
 50
240.0183606311155
 51
60.01835942369237
  0
ARC
  5
1BC
102
{ACAD_REACTORS
330
24C
102
}
330
1F
100
AcDbEntity
  8
0
  6
Continuous
 62
     7
100
AcDbCircle
 10
-1188.518070789821
 20
758.5791780434059
 30
0.0
 40
0.6666666666665145
100
AcDbArc
 50
60.01836063118322
 51
180.0
  0
ARC
  5
1BD
102
{ACAD_REACTORS
330
24C
102
}
330
1F
100
AcDbEntity
  8
0
  6
Continuous
 62
     7
100
AcDbCircle
 10
-1188.518070789821
 20
748.8058249475135
 30
0.0
 40
0.6666666666681067
100
AcDbArc
 50
180.0
 51
299.9816393688168
  0
LWPOLYLINE
  5
1BE
330
1F
100
AcDbEntity
  8
Skizziergeometrie_ISO_
  6
Continuous
 62
     7
100
AcDbPolyline
 90
        2
 70
     0
 43
0.5
 10
-1185.446017026304
 20
749.8085056562207
 42
1.00000000000118
 10
-1186.112313630956
 20
750.9634197709523
 42
1.00000000000118
  0
LWPOLYLINE
  5
1BF
330
1F
100
AcDbEntity
  8
Skizziergeometrie_ISO_
  6
Continuous
 62
     7
100
AcDbPolyline
 90
        2
 70
     0
 43
0.5
 10
-1185.779165328629
 20
753.0258348287929
 42
1.0
 10
-1185.779165328629
 20
754.3591681621265
 42
1.0
  0
LWPOLYLINE
  5
1C0
102
{ACAD_REACTORS
330
24C
102
}
330
1F
100
AcDbEntity
  8
Skizziergeometrie_ISO_
  6
Continuous
 62
     7
100
AcDbPolyline
 90
        2
 70
     0
 43
0.5
 10
-1186.112313630956
 20
756.4215832199671
 42
1.00000000000118
 10
-1185.446017026304
 20
757.5764973346987
 42
1.00000000000118
  0
LWPOLYLINE
  5
1C1
330
1F
100
AcDbEntity
  8
Skizziergeometrie_ISO_
  6
Continuous
 62
     7
100
AcDbPolyline
 90
        2
 70
     0
 43
0.5
 10
-1202.518068772215
 20
750.3859627135865
 42
1.0
 10
-1201.184735438884
 20
750.3859627135865
 42
1.0
  0
LWPOLYLINE
  5
1C2
330
1F
100
AcDbEntity
  8
Skizziergeometrie_ISO_
  6
Continuous
 62
     7
100
AcDbPolyline
 90
        2
 70
     0
 43
0.5
 10
-1201.184735438884
 20
756.9990402773329
 42
1.0
 10
-1202.518068772215
 20
756.9990402773329
 42
1.0
  0
LWPOLYLINE
  5
1C3
330
1F
100
AcDbEntity
  8
Skizziergeometrie_ISO_
  6
Continuous
 62
     7
100
AcDbPolyline
 90
        2
 70
     0
 43
0.5
 10
-1194.849090746636
 20
745.576509697812
 42
1.0
 10
-1194.182794141984
 20
746.7314238125435
 42
1.0
  0
LWPOLYLINE
  5
1C4
330
1F
100
AcDbEntity
  8
Skizziergeometrie_ISO_
  6
Continuous
 62
     7
100
AcDbPolyline
 90
        2
 70
     0
 43
0.5
 10
-1198.51806675461
 20
758.5791780434059
 42
1.0
 10
-1199.851400087944
 20
758.5791780434059
 42
1.0
  0
LWPOLYLINE
  5
1C5
330
1F
100
AcDbEntity
  8
Skizziergeometrie_ISO_
  6
Continuous
 62
     7
100
AcDbPolyline
 90
        2
 70
     0
 43
0.5
 10
-1190.518079598068
 20
760.1966174288214
 42
0.76732698797844
 10
-1191.506946965315
 20
760.4615836412967
 42
0.76732698797844
  0
LWPOLYLINE
  5
1C6
330
1F
100
AcDbEntity
  8
Skizziergeometrie_ISO_
  6
Continuous
 62
     7
100
AcDbPolyline
 90
        2
 70
     0
 43
0.5
 10
-1191.851412931402
 20
747.2673583273709
 42
1.0
 10
-1190.518079598068
 20
747.2673583273709
 42
1.0
  0
LWPOLYLINE
  5
1C7
330
1F
100
AcDbEntity
  8
Skizziergeometrie_ISO_
  6
Continuous
 62
     7
100
AcDbPolyline
 90
        2
 70
     0
 43
0.5
 10
-1197.18472461303
 20
750.3859627135865
 42
1.0
 10
-1195.851391279698
 20
750.3859627135865
 42
1.0
  0
LWPOLYLINE
  5
1C8
330
1F
100
AcDbEntity
  8
Skizziergeometrie_ISO_
  6
Continuous
 62
     7
100
AcDbPolyline
 90
        2
 70
     0
 43
0.5
 10
-1196.195857245784
 20
760.4615836412967
 42
0.76732698797885
 10
-1197.184724613031
 20
760.1966174288215
 42
0.76732698797885
  0
LWPOLYLINE
  5
1C9
330
1F
100
AcDbEntity
  8
Skizziergeometrie_ISO_
  6
Continuous
 62
     7
100
AcDbPolyline
 90
        2
 70
     0
 43
0.5
 10
-1189.184737456489
 20
748.8058249475135
 42
0.57724345630757
 10
-1188.184922487495
 20
748.2283678901478
 42
0.57724345630757
  0
LWPOLYLINE
  5
1CA
330
1F
100
AcDbEntity
  8
Skizziergeometrie_ISO_
  6
Continuous
 62
     7
100
AcDbPolyline
 90
        2
 70
     0
 43
0.5
 10
-1188.184922487495
 20
759.1566351007717
 42
0.57724345630757
 10
-1189.184737456489
 20
758.5791780434059
 42
0.57724345630757
  0
LWPOLYLINE
  5
1CB
330
1F
100
AcDbEntity
  8
Skizziergeometrie_ISO_
  6
Continuous
 62
     7
100
AcDbPolyline
 90
        2
 70
     0
 43
0.5
 10
-1177.018531555268
 20
753.4037729667771
 42
0.5775639245986
 10
-1177.018531555268
 20
753.9812300241423
 42
0.5775639245986
  0
LWPOLYLINE
  5
1CC
330
1F
100
AcDbEntity
  8
Skizziergeometrie_ISO_
  6
Continuous
 62
     7
100
AcDbPolyline
 90
        2
 70
     0
 43
0.5
 10
-1210.684272655831
 20
753.9812300241423
 42
0.5775639245986
 10
-1210.684272655831
 20
753.4037729667771
 42
0.5775639245986
  0
LWPOLYLINE
  5
1CD
330
1F
100
AcDbEntity
  8
Skizziergeometrie_ISO_
  6
Continuous
 62
     7
100
AcDbPolyline
 90
        2
 70
     0
 43
0.5
 10
-1199.851400087944
 20
749.2325451711837
 42
0.26803505952205
 10
-1199.184361155979
 20
748.0776272416643
 42
0.26803505952205
  0
LWPOLYLINE
  5
1CE
330
1F
100
AcDbEntity
  8
Skizziergeometrie_ISO_
  6
Continuous
 62
     7
100
AcDbPolyline
 90
        2
 70
     0
 43
0.5
 10
-1194.140077240144
 20
754.2342104757415
 42
0.57735026918885
 10
-1193.562726970956
 20
754.2342104757415
 42
0.57735026918885
  0
ARC
  5
1CF
330
1F
100
AcDbEntity
  8
0
  6
Continuous
 62
     2
100
AcDbCircle
 10
-1527.209236667941
 20
1025.33911159909
 30
0.0
 40
0.1663461500001529
100
AcDbArc
 50
299.7524870762325
 51
60.24751292392297
  0
ARC
  5
1D0
330
1F
100
AcDbEntity
  8
0
  6
Continuous
 62
     2
100
AcDbCircle
 10
-1535.69289031794
 20
1020.681419399091
 30
0.0
 40
0.3326923000010939
100
AcDbArc
 50
240.2480640654775
 51
299.7524870755914
  0
ARC
  5
1D1
330
1F
100
AcDbEntity
  8
0
  6
Continuous
 62
     2
100
AcDbCircle
 10
-1533.031351917941
 20
1023.160786685353
 30
0.0
 40
0.3326922999999624
100
AcDbArc
 50
180.0
 51
299.9816393684051
  0
ARC
  5
1D2
330
1F
100
AcDbEntity
  8
0
  6
Continuous
 62
     2
100
AcDbCircle
 10
-1531.700582717933
 20
1023.921404365499
 30
0.0
 40
0.3326923000004902
100
AcDbArc
 50
299.9816393697893
 51
119.9816393697078
  0
ARC
  5
1D3
330
1F
100
AcDbEntity
  8
0
  6
Continuous
 62
     2
100
AcDbCircle
 10
-1534.36212111794
 20
1022.400112787603
 30
0.0
 40
0.3326922999999624
100
AcDbArc
 50
180.0
 51
0.0
  0
ARC
  5
1D4
330
1F
100
AcDbEntity
  8
0
  6
Continuous
 62
     2
100
AcDbCircle
 10
-1531.700582717941
 20
1025.33911159909
 30
0.0
 40
0.3326922999990529
100
AcDbArc
 50
270.0
 51
90.0
  0
ARC
  5
1D5
330
1F
100
AcDbEntity
  8
0
  6
Continuous
 62
     2
100
AcDbCircle
 10
-1534.36212111794
 20
1028.278110410578
 30
0.0
 40
0.3326922999999624
100
AcDbArc
 50
0.0
 51
150.0000000000437
  0
ARC
  5
1D6
330
1F
100
AcDbEntity
  8
0
  6
Continuous
 62
     2
100
AcDbCircle
 10
-1535.69289031794
 20
1025.64045824303
 30
0.0
 40
0.1663461500011439
100
AcDbArc
 50
209.999999999814
 51
330.0000000000294
  0
ARC
  5
1D7
330
1F
100
AcDbEntity
  8
0
  6
Continuous
 62
     2
100
AcDbCircle
 10
-1531.700582717952
 20
1026.756762615086
 30
0.0
 40
0.3326923000002023
100
AcDbArc
 50
240.0183606333919
 51
60.01836063326011
  0
ARC
  5
1D8
330
1F
100
AcDbEntity
  8
0
  6
Continuous
 62
     2
100
AcDbCircle
 10
-1533.031351917941
 20
1027.517436512828
 30
0.0
 40
0.3326923000004523
100
AcDbArc
 50
60.01836063120155
 51
180.0
  0
ARC
  5
1D9
330
1F
100
AcDbEntity
  8
0
  6
Continuous
 62
     2
100
AcDbCircle
 10
-1537.02365951794
 20
1028.278110410578
 30
0.0
 40
0.3326923000004019
100
AcDbArc
 50
29.9999999999563
 51
180.0
  0
ARC
  5
1DA
330
1F
100
AcDbEntity
  8
0
  6
Continuous
 62
     2
100
AcDbCircle
 10
-1539.685197917941
 20
1026.756818832687
 30
0.0
 40
0.3326923000008719
100
AcDbArc
 50
0.0
 51
180.0
  0
ARC
  5
1DB
330
1F
100
AcDbEntity
  8
0
  6
Continuous
 62
     2
100
AcDbCircle
 10
-1538.35442871794
 20
1027.524570294225
 30
0.0
 40
0.3326922999999624
100
AcDbArc
 50
0.0
 51
180.0
  0
ARC
  5
1DC
330
1F
100
AcDbEntity
  8
0
  6
Continuous
 62
     2
100
AcDbCircle
 10
-1544.176359190197
 20
1025.33911159909
 30
0.0
 40
0.1665309277436247
100
AcDbArc
 50
119.7519359345616
 51
240.2480640651278
  0
ARC
  5
1DD
330
1F
100
AcDbEntity
  8
0
  6
Continuous
 62
     2
100
AcDbCircle
 10
-1539.685197917941
 20
1023.921404365494
 30
0.0
 40
0.3326922999990529
100
AcDbArc
 50
180.0
 51
0.0
  0
ARC
  5
1DE
330
1F
100
AcDbEntity
  8
0
  6
Continuous
 62
     2
100
AcDbCircle
 10
-1538.02173641794
 20
1023.353782752671
 30
0.0
 40
0.6653845999999248
100
AcDbArc
 50
179.9999999999119
 51
240.0183606307959
  0
ARC
  5
1DF
330
1F
100
AcDbEntity
  8
0
  6
Continuous
 62
     2
100
AcDbCircle
 10
-1537.02365951794
 20
1023.921404365494
 30
0.0
 40
0.3326923000010993
100
AcDbArc
 50
180.0
 51
0.0
  0
ARC
  5
1E0
330
1F
100
AcDbEntity
  8
0
  6
Continuous
 62
     2
100
AcDbCircle
 10
-1536.025582617926
 20
1021.829594771365
 30
0.0
 40
0.3326923000002705
100
AcDbArc
 50
240.0183606281998
 51
60.01836062875292
  0
ARC
  5
1E1
330
1F
100
AcDbEntity
  8
0
  6
Continuous
 62
     2
100
AcDbCircle
 10
-1535.69289031794
 20
1029.996803799091
 30
0.0
 40
0.3326922999987262
100
AcDbArc
 50
60.24751292424345
 51
119.7519359346877
  0
CIRCLE
  5
1E2
330
1F
100
AcDbEntity
  8
0
  6
Continuous
 62
     7
100
AcDbCircle
 10
-1564.524001075596
 20
1033.685103957022
 30
0.0
 40
8.500000000000428
  0
CIRCLE
  5
1E3
330
1F
100
AcDbEntity
  8
0
  6
Continuous
 62
     2
100
AcDbCircle
 10
-1564.524001075596
 20
1033.685103957022
 30
0.0
 40
7.5000000000006
  0
CIRCLE
  5
1E4
330
1F
100
AcDbEntity
  8
0
  6
Continuous
 62
     2
100
AcDbCircle
 10
-1451.524001076282
 20
994.6850777728702
 30
0.0
 40
7.500000000000294
  0
CIRCLE
  5
1E5
330
1F
100
AcDbEntity
  8
0
  6
Continuous
 62
     7
100
AcDbCircle
 10
-1451.524001076282
 20
994.6850777728702
 30
0.0
 40
8.4999999999999
  0
SPLINE
  5
1E6
330
1F
100
AcDbEntity
  8
0
  6
Continuous
 62
     2
100
AcDbSpline
210
0.0
220
0.0
230
1.0
 70
     8
 71
     3
 72
    28
 73
    24
 74
    22
 42
0.0000000001
 43
0.0000000001
 44
0.00000001
 40
0.0
 40
0.0
 40
0.0
 40
0.0
 40
0.0638613234029852
 40
0.126552953308972
 40
0.187302887257841
 40
0.2078424982506469
 40
0.2317998946188812
 40
0.2584511219082842
 40
0.2870722256818469
 40
0.3169392515222718
 40
0.3473282450446887
 40
0.3757584453777153
 40
0.3996306338291712
 40
0.4193064016562951
 40
0.4351473400835878
 40
0.4475150402920611
 40
0.4567710934078492
 40
0.4722153981464719
 40
0.4834306788451938
 40
0.4911015409470281
 40
0.4959125893545495
 40
0.4985484294771176
 40
0.4996936783564331
 40
0.4996936783564331
 40
0.4996936783564331
 40
0.4996936783564331
 10
-1542.873058838002
 20
990.7903179374208
 30
0.0
 10
-1542.873070656667
 20
990.8116050420708
 30
0.0
 10
-1542.873094077523
 20
990.8537893535956
 30
0.0
 10
-1542.873108706246
 20
990.9162236484271
 30
0.0
 10
-1542.873114088185
 20
990.9642173730139
 30
0.0
 10
-1542.873116511874
 20
990.9992996867103
 30
0.0
 10
-1542.873117671827
 20
991.023015764899
 30
0.0
 10
-1542.873118273314
 20
991.04942567404
 30
0.0
 10
-1542.873118036124
 20
991.0778054596791
 30
0.0
 10
-1542.873116669624
 20
991.1074311673681
 30
0.0
 10
-1542.873113943018
 20
991.1369932404871
 30
0.0
 10
-1542.873109867765
 20
991.1645570343059
 30
0.0
 10
-1542.873104782164
 20
991.1885497526539
 30
0.0
 10
-1542.873099189625
 20
991.2083460501221
 30
0.0
 10
-1542.873093457324
 20
991.2243075179163
 30
0.0
 10
-1542.873087922356
 20
991.2367957473285
 30
0.0
 10
-1542.873081422729
 20
991.2491517648589
 30
0.0
 10
-1542.873073372916
 20
991.2611236424316
 30
0.0
 10
-1542.873064118843
 20
991.2725671192993
 30
0.0
 10
-1542.873054801973
 20
991.2804661821143
 30
0.0
 10
-1542.873051352037
 20
991.2855054228651
 30
0.0
 10
-1542.873045687077
 20
991.2883694782402
 30
0.0
 10
-1542.873051361543
 20
991.2896298303885
 30
0.0
 10
-1542.873053080274
 20
991.290011576728
 30
0.0
 11
-1542.873058838002
 21
990.7903179374208
 31
0.0
 11
-1542.873090846942
 21
990.8541792528019
 31
0.0
 11
-1542.873107561338
 21
990.9168708804798
 31
0.0
 11
-1542.873114939694
 21
990.9776208139806
 31
0.0
 11
-1542.873116369405
 21
990.9981604249236
 31
0.0
 11
-1542.873117529109
 21
991.0221178212638
 31
0.0
 11
-1542.873118125
 21
991.0487690485465
 31
0.0
 11
-1542.873117863273
 21
991.0773901523189
 31
0.0
 11
-1542.873116450121
 21
991.1072571781259
 31
0.0
 11
-1542.873113591736
 21
991.1376461715139
 31
0.0
 11
-1542.873109312852
 21
991.1660763715249
 31
0.0
 11
-1542.873104177964
 21
991.1899485594241
 31
0.0
 11
-1542.873098550084
 21
991.2096243264464
 31
0.0
 11
-1542.873092792219
 21
991.2254652638272
 31
0.0
 11
-1542.873087267379
 21
991.2378329628017
 31
0.0
 11
-1542.873082338572
 21
991.2470890146052
 31
0.0
 11
-1542.873072018614
 21
991.2625333158959
 31
0.0
 11
-1542.873062340202
 21
991.2737485924185
 31
0.0
 11
-1542.873054455248
 21
991.2814194504679
 31
0.0
 11
-1542.873049515668
 21
991.2862304963396
 31
0.0
 11
-1542.873048673372
 21
991.2888663363276
 31
0.0
 11
-1542.873053080274
 21
991.290011576728
 31
0.0
  0
SPLINE
  5
1E7
330
1F
100
AcDbEntity
  8
0
  6
Continuous
 62
     2
100
AcDbSpline
210
0.0
220
0.0
230
1.0
 70
     8
 71
     3
 72
    18
 73
    14
 74
    12
 42
0.0000000001
 43
0.0000000001
 44
0.00000001
 40
0.0
 40
0.0
 40
0.0
 40
0.0
 40
0.4567189174398325
 40
0.9045527939957012
 40
1.187851380329519
 40
1.451562747081977
 40
1.689827827372157
 40
1.897624985050274
 40
2.071165764412577
 40
2.208078179449218
 40
2.307483501634401
 40
2.369986759516609
 40
2.397437257161231
 40
2.397437257161231
 40
2.397437257161231
 40
2.397437257161231
 10
-1542.365003330322
 20
994.1945753355711
 30
0.0
 10
-1542.365088799186
 20
994.0423357191951
 30
0.0
 10
-1542.365258074196
 20
993.7408181662953
 30
0.0
 10
-1542.365328612565
 20
993.3448677039727
 30
0.0
 10
-1542.365336178084
 20
993.0132530954318
 30
0.0
 10
-1542.365315636581
 20
992.7514947482791
 30
0.0
 10
-1542.365288682603
 20
992.5149035582235
 30
0.0
 10
-1542.365266495594
 20
992.3083691901809
 30
0.0
 10
-1542.365285021553
 20
992.1356191562672
 30
0.0
 10
-1542.365305765238
 20
991.9989994343937
 30
0.0
 10
-1542.365470117166
 20
991.8993929870799
 30
0.0
 10
-1542.365508740792
 20
991.8362724775045
 30
0.0
 10
-1542.365827867266
 20
991.8062894817315
 30
0.0
 10
-1542.365925252644
 20
991.7971398008756
 30
0.0
 11
-1542.365003330322
 21
994.1945753355711
 31
0.0
 11
-1542.365230276626
 21
993.7378564745168
 31
0.0
 11
-1542.365324179974
 21
993.2900226078059
 31
0.0
 11
-1542.365331373271
 21
993.0067240215634
 31
0.0
 11
-1542.36531333381
 21
992.743012655428
 31
0.0
 11
-1542.365287801368
 21
992.5047475765058
 31
0.0
 11
-1542.365273371305
 21
992.2969504193287
 31
0.0
 11
-1542.365287772904
 21
992.123409640564
 31
0.0
 11
-1542.365347275717
 21
991.9864972384574
 31
0.0
 11
-1542.365469294784
 21
991.8870919911609
 31
0.0
 11
-1542.365661106228
 21
991.8245890275971
 31
0.0
 11
-1542.365925252644
 21
991.7971398008756
 31
0.0
  0
SPLINE
  5
1E8
330
1F
100
AcDbEntity
  8
0
  6
Continuous
 62
     2
100
AcDbSpline
210
0.0
220
0.0
230
1.0
 70
     8
 71
     3
 72
     9
 73
     5
 74
     3
 42
0.0000000001
 43
0.0000000001
 44
0.00000001
 40
0.0
 40
0.0
 40
0.0
 40
0.0
 40
6.374043160072531
 40
12.78718205034332
 40
12.78718205034332
 40
12.78718205034332
 40
12.78718205034332
 10
-1470.206504305301
 20
1030.22223072868
 30
0.0
 10
-1470.216305582393
 20
1028.097569964486
 30
0.0
 10
-1470.235968253536
 20
1023.835216650478
 30
0.0
 10
-1470.238705946065
 20
1019.572818828705
 30
0.0
 10
-1470.240078977461
 20
1017.435103956969
 30
0.0
 11
-1470.206504305301
 21
1030.22223072868
 31
0.0
 11
-1470.231702725719
 21
1023.848237377093
 31
0.0
 11
-1470.240078977461
 21
1017.435103956969
 31
0.0
  0
SPLINE
  5
1E9
330
1F
100
AcDbEntity
  8
0
  6
Continuous
 62
     2
100
AcDbSpline
210
0.0
220
0.0
230
1.0
 70
     8
 71
     3
 72
    28
 73
    24
 74
    22
 42
0.0000000001
 43
0.0000000001
 44
0.00000001
 40
0.0
 40
0.0
 40
0.0
 40
0.0
 40
0.0011449786953128
 40
0.0037806669172501
 40
0.0085916583844915
 40
0.0162625468083776
 40
0.0274779259003172
 40
0.0429223893702926
 40
0.0521785410713995
 40
0.0645463220970987
 40
0.0803873174546309
 40
0.10006311214978
 40
0.12393529118846
 40
0.1523654395773935
 40
0.1684909276183959
 40
0.1887798277201292
 40
0.2132732003288035
 40
0.2420121058904081
 40
0.2750376048516212
 40
0.3123907576588997
 40
0.3731407001953164
 40
0.4358323173377103
 40
0.4996936078556907
 40
0.4996936078556907
 40
0.4996936078556907
 40
0.4996936078556907
 10
-1473.174949039419
 20
991.2900115452294
 30
0.0
 10
-1473.174949083157
 20
991.2896298856663
 30
0.0
 10
-1473.174949227579
 20
991.288369663368
 30
0.0
 10
-1473.174949086446
 20
991.285505777233
 30
0.0
 10
-1473.174948984939
 20
991.2804665878685
 30
0.0
 10
-1473.174948712264
 20
991.272567501543
 30
0.0
 10
-1473.174948404098
 20
991.2611239245527
 30
0.0
 10
-1473.174948107573
 20
991.2491519264688
 30
0.0
 10
-1473.174947838178
 20
991.2367957944056
 30
0.0
 10
-1473.174947585832
 20
991.2243074850471
 30
0.0
 10
-1473.174947289616
 20
991.2083459613569
 30
0.0
 10
-1473.17494695182
 20
991.1885496383293
 30
0.0
 10
-1473.174946575483
 20
991.1645569309579
 30
0.0
 10
-1473.17494624628
 20
991.1417476591378
 30
0.0
 10
-1473.174945952053
 20
991.1201328136287
 30
0.0
 10
-1473.174945687973
 20
991.0998302267138
 30
0.0
 10
-1473.174945385042
 20
991.0753231672913
 30
0.0
 10
-1473.174945048836
 20
991.0465705749161
 30
0.0
 10
-1473.174944684973
 20
991.0135313891415
 30
0.0
 10
-1473.174944233376
 20
990.9698218577089
 30
0.0
 10
-1473.174943726077
 20
990.9162236202159
 30
0.0
 10
-1473.17494318997
 20
990.8537893368193
 30
0.0
 10
-1473.174942875619
 20
990.8116050342668
 30
0.0
 10
-1473.174942716991
 20
990.7903179374282
 30
0.0
 11
-1473.174949039419
 21
991.2900115452294
 31
0.0
 11
-1473.174949151691
 21
991.2888665665396
 31
0.0
 11
-1473.174949131239
 21
991.2862308783177
 31
0.0
 11
-1473.174948995256
 21
991.2814198868524
 31
0.0
 11
-1473.174948760932
 21
991.2737489984321
 31
0.0
 11
-1473.174948445459
 21
991.2625336193446
 31
0.0
 11
-1473.174948066028
 21
991.2470891558793
 31
0.0
 11
-1473.1749478629
 21
991.2378330041804
 31
0.0
 11
-1473.174947612205
 21
991.2254652231572
 31
0.0
 11
-1473.174947316858
 21
991.2096242278025
 31
0.0
 11
-1473.174946979772
 21
991.1899484331102
 31
0.0
 11
-1473.174946603864
 21
991.1660762540745
 31
0.0
 11
-1473.174946192045
 21
991.1376461056885
 31
0.0
 11
-1473.174945972384
 21
991.121520617649
 31
0.0
 11
-1473.174945708182
 21
991.101231717549
 31
0.0
 11
-1473.174945405044
 21
991.0767383449422
 31
0.0
 11
-1473.174945068575
 21
991.0479994393826
 31
0.0
 11
-1473.174944704379
 21
991.0149739404234
 31
0.0
 11
-1473.174944318063
 21
990.9776207876181
 31
0.0
 11
-1473.174943740954
 21
990.9168708450844
 31
0.0
 11
-1473.174943205066
 21
990.8541792279443
 31
0.0
 11
-1473.174942716991
 21
990.7903179374282
 31
0.0
  0
SPLINE
  5
1EA
330
1F
100
AcDbEntity
  8
0
  6
Continuous
 62
     2
100
AcDbSpline
210
0.0
220
0.0
230
1.0
 70
     8
 71
     3
 72
    19
 73
    15
 74
    13
 42
0.0000000001
 43
0.0000000001
 44
0.00000001
 40
0.0
 40
0.0
 40
0.0
 40
0.0
 40
0.3524693073007603
 40
0.6921094531799521
 40
1.012690170891169
 40
1.258130657613183
 40
1.484491314775625
 40
1.689828029709357
 40
1.89567559999733
 40
2.069251025434961
 40
2.208076527387798
 40
2.305322157078784
 40
2.368663084827747
 40
2.397431123413191
 40
2.397431123413191
 40
2.397431123413191
 40
2.397431123413191
 10
-1473.682053910415
 20
994.1945711749138
 30
0.0
 10
-1473.682054200703
 20
994.0770814058135
 30
0.0
 10
-1473.682054770713
 20
993.8463782547531
 30
0.0
 10
-1473.682058467673
 20
993.5088148644734
 30
0.0
 10
-1473.682062733379
 20
993.2069277477331
 30
0.0
 10
-1473.682066779492
 20
992.9428004605652
 30
0.0
 10
-1473.682070204311
 20
992.7170878409855
 30
0.0
 10
-1473.682073148242
 20
992.5045728602104
 30
0.0
 10
-1473.682075195957
 20
992.3096529566678
 30
0.0
 10
-1473.682076456821
 20
992.1369034574462
 30
0.0
 10
-1473.682077097234
 20
992.0003546050868
 30
0.0
 10
-1473.682077408246
 20
991.9005505852897
 30
0.0
 10
-1473.682077531031
 20
991.8374323866151
 30
0.0
 10
-1473.682077542315
 20
991.8067293978365
 30
0.0
 10
-1473.68207754584
 20
991.7971400516416
 30
0.0
 11
-1473.682053910415
 21
994.1945711749138
 31
0.0
 11
-1473.682055288738
 21
993.8421018676157
 31
0.0
 11
-1473.682058722355
 21
993.5024617217539
 31
0.0
 11
-1473.682063159235
 21
993.1818810040734
 31
0.0
 11
-1473.682066870729
 21
992.9364405173794
 31
0.0
 11
-1473.6820702584
 21
992.7100798602423
 31
0.0
 11
-1473.682073031468
 21
992.5047431453273
 31
0.0
 11
-1473.682075189598
 21
992.2988955750507
 31
0.0
 11
-1473.682076457499
 21
992.1253201496177
 31
0.0
 11
-1473.68207711941
 21
991.9864946476664
 31
0.0
 11
-1473.68207742048
 21
991.8892490179759
 31
0.0
 11
-1473.682077530541
 21
991.825908090227
 31
0.0
 11
-1473.68207754584
 21
991.7971400516416
 31
0.0
  0
SPLINE
  5
1EB
330
1F
100
AcDbEntity
  8
0
  6
Continuous
 62
     2
100
AcDbSpline
210
0.0
220
0.0
230
1.0
 70
     8
 71
     3
 72
    19
 73
    15
 74
    13
 42
0.0000000001
 43
0.0000000001
 44
0.00000001
 40
0.0
 40
0.0
 40
0.0
 40
0.0
 40
0.5358706758657973
 40
1.083888293887426
 40
1.441058675181081
 40
1.779953429792092
 40
2.091045393764491
 40
2.365850595797472
 40
2.597815783405684
 40
2.78386212554361
 40
2.923321188930615
 40
3.020035186030596
 40
3.055321621603819
 40
3.084560793117282
 40
3.084560793117282
 40
3.084560793117282
 40
3.084560793117282
 10
-1470.206479812857
 20
997.848845050772
 30
0.0
 10
-1470.027863948313
 20
997.8513896479099
 30
0.0
 10
-1469.666583412915
 20
997.8565365222855
 30
0.0
 10
-1469.186721999504
 20
997.880814638331
 30
0.0
 10
-1468.773245960326
 20
997.9129652040262
 30
0.0
 10
-1468.439290259671
 20
997.9477633874662
 30
0.0
 10
-1468.13372568033
 20
997.9889186853379
 30
0.0
 10
-1467.865102287976
 20
998.0359510324718
 30
0.0
 10
-1467.639754798063
 20
998.0869981414853
 30
0.0
 10
-1467.461528381352
 20
998.140343740677
 30
0.0
 10
-1467.331335804127
 20
998.1947823441361
 30
0.0
 10
-1467.254711853019
 20
998.2444856584283
 30
0.0
 10
-1467.218649198305
 20
998.2856706265436
 30
0.0
 10
-1467.211507282303
 20
998.3061391352671
 30
0.0
 10
-1467.208270990289
 20
998.3154142473383
 30
0.0
 11
-1470.206479812857
 21
997.848845050772
 31
0.0
 11
-1469.670718771541
 21
997.8596842325408
 31
0.0
 11
-1469.123383068975
 21
997.8870144055771
 31
0.0
 11
-1468.767313394047
 21
997.9150334681947
 31
0.0
 11
-1468.430277741146
 21
997.9504823521954
 31
0.0
 11
-1468.122061198347
 21
997.9926815558954
 31
0.0
 11
-1467.851505985591
 21
998.0408248411477
 31
0.0
 11
-1467.625534457266
 21
998.09321488456
 31
0.0
 11
-1467.447841372811
 21
998.1483366512194
 31
0.0
 11
-1467.3203034428
 21
998.2047539071723
 31
0.0
 11
-1467.241525874276
 21
998.2608582023068
 31
0.0
 11
-1467.219476728216
 21
998.2884075706027
 31
0.0
 11
-1467.208270990289
 21
998.3154142473383
 31
0.0
  0
SPLINE
  5
1EC
330
1F
100
AcDbEntity
  8
0
  6
Continuous
 62
     2
100
AcDbSpline
210
0.0
220
0.0
230
1.0
 70
     8
 71
     3
 72
    15
 73
    11
 74
     9
 42
0.0000000001
 43
0.0000000001
 44
0.00000001
 40
0.0
 40
0.0
 40
0.0
 40
0.0
 40
0.6945434095973781
 40
1.391048437414237
 40
2.089432150335459
 40
2.785002068821438
 40
3.487177235726186
 40
4.188835863288773
 40
4.894142366981062
 40
5.597325282388079
 40
5.597325282388079
 40
5.597325282388079
 40
5.597325282388079
 10
-1473.682053910415
 20
994.1945711749138
 30
0.0
 10
-1473.450181125975
 20
994.2089341626668
 30
0.0
 10
-1472.985780672358
 20
994.2377007039582
 30
0.0
 10
-1472.317749742945
 20
994.4598861655198
 30
0.0
 10
-1471.708374480779
 20
994.8058070109857
 30
0.0
 10
-1471.17952476606
 20
995.2698251081158
 30
0.0
 10
-1470.750815879938
 20
995.8288437264023
 30
0.0
 10
-1470.437850097084
 20
996.46220437803
 30
0.0
 10
-1470.240721395452
 20
997.1438217177263
 30
0.0
 10
-1470.217882195454
 20
997.6140736069924
 30
0.0
 10
-1470.206479812857
 20
997.848845050772
 30
0.0
 11
-1473.682053910415
 21
994.1945711749138
 31
0.0
 11
-1472.991335705255
 21
994.2673647795461
 31
0.0
 11
-1472.328163366089
 21
994.4802537232207
 31
0.0
 11
-1471.721271898766
 21
994.825829412997
 31
0.0
 11
-1471.197838315779
 21
995.2839066943635
 31
0.0
 11
-1470.770315178626
 21
995.8409290747187
 31
0.0
 11
-1470.457625111954
 21
996.4690610288797
 31
0.0
 11
-1470.267790296337
 21
997.1483400635408
 31
0.0
 11
-1470.206479812857
 21
997.848845050772
 31
0.0
  0
SPLINE
  5
1ED
330
1F
100
AcDbEntity
  8
0
  6
Continuous
 62
     2
100
AcDbSpline
210
0.0
220
0.0
230
1.0
 70
     8
 71
     3
 72
    23
 73
    19
 74
    17
 42
0.0000000001
 43
0.0000000001
 44
0.00000001
 40
0.0
 40
0.0
 40
0.0
 40
0.0
 40
0.6439395959238956
 40
1.288889177604797
 40
1.935983441738045
 40
2.582200473250126
 40
3.223291463039566
 40
3.863273376096099
 40
4.503039735386426
 40
5.142039949703501
 40
5.777378209109255
 40
6.412198878090951
 40
7.047928357277629
 40
7.683278886384961
 40
8.314953399446217
 40
8.94571690399414
 40
9.575067717566697
 40
10.20383285197791
 40
10.20383285197791
 40
10.20383285197791
 40
10.20383285197791
 10
-1473.68207754584
 20
991.7971400516416
 30
0.0
 10
-1473.467347017913
 20
991.8034759992875
 30
0.0
 10
-1473.037549168396
 20
991.8161578321834
 30
0.0
 10
-1472.398432322763
 20
991.9165682546177
 30
0.0
 10
-1471.771427108996
 20
992.075812375745
 30
0.0
 10
-1471.164561739047
 20
992.2971292677232
 30
0.0
 10
-1470.5850076068
 20
992.5767243050286
 30
0.0
 10
-1470.038009875838
 20
992.9115638444939
 30
0.0
 10
-1469.527382089883
 20
993.2983998340936
 30
0.0
 10
-1469.058158235111
 20
993.7322555740043
 30
0.0
 10
-1468.635002071354
 20
994.2089496416265
 30
0.0
 10
-1468.261322896299
 20
994.7239866676845
 30
0.0
 10
-1467.939852119992
 20
995.2731246337535
 30
0.0
 10
-1467.673540972016
 20
995.8498278743059
 30
0.0
 10
-1467.464829886807
 20
996.4481448558572
 30
0.0
 10
-1467.31665412292
 20
997.0618765629422
 30
0.0
 10
-1467.224256767307
 20
997.686176292484
 30
0.0
 10
-1467.213597928658
 20
998.1057333665706
 30
0.0
 10
-1467.208270990289
 20
998.3154142473383
 30
0.0
 11
-1473.68207754584
 21
991.7971400516416
 31
0.0
 11
-1473.038960052266
 21
991.8296683878739
 31
0.0
 11
-1472.401276921572
 21
991.9262095072893
 31
0.0
 11
-1471.774305282436
 21
992.0863268092719
 31
0.0
 11
-1471.167174957117
 21
992.3076618943655
 31
0.0
 11
-1470.589787756156
 21
992.5862685657789
 31
0.0
 11
-1470.04391564362
 21
992.9203351546425
 31
0.0
 11
-1469.533895077708
 21
993.3065734448551
 31
0.0
 11
-1469.064788703878
 21
993.7404633893448
 31
0.0
 11
-1468.643016540855
 21
994.2156085738552
 31
0.0
 11
-1468.270190095301
 21
994.7294156614498
 31
0.0
 11
-1467.948916966394
 21
995.2779915881448
 31
0.0
 11
-1467.682579574415
 21
995.8548231826943
 31
0.0
 11
-1467.474733224073
 21
996.4513234635834
 31
0.0
 11
-1467.325829012005
 21
997.0642591325552
 31
0.0
 11
-1467.236960909268
 21
997.6873040000089
 31
0.0
 11
-1467.208270990289
 21
998.3154142473383
 31
0.0
  0
SPLINE
  5
1EE
330
1F
100
AcDbEntity
  8
0
  6
Continuous
 62
     2
100
AcDbSpline
210
0.0
220
0.0
230
1.0
 70
     8
 71
     3
 72
     9
 73
     5
 74
     3
 42
0.0000000001
 43
0.0000000001
 44
0.00000001
 40
0.0
 40
0.0
 40
0.0
 40
0.0
 40
6.178574617058842
 40
12.31947887156222
 40
12.31947887156222
 40
12.31947887156222
 40
12.31947887156222
 10
-1467.241906470499
 20
1010.634835571231
 30
0.0
 10
-1467.240524096687
 20
1008.575308723415
 30
0.0
 10
-1467.237767777305
 20
1004.468811827346
 30
0.0
 10
-1467.218083188857
 20
1000.362361221335
 30
0.0
 10
-1467.208270990289
 20
998.3154142473383
 30
0.0
 11
-1467.241906470499
 21
1010.634835571231
 31
0.0
 11
-1467.233501360692
 21
1004.456266671179
 31
0.0
 11
-1467.208270990289
 21
998.3154142473383
 31
0.0
  0
SPLINE
  5
1EF
330
1F
100
AcDbEntity
  8
0
  6
Continuous
 62
     2
100
AcDbSpline
210
0.0
220
0.0
230
1.0
 70
     8
 71
     3
 72
     9
 73
     5
 74
     3
 42
0.0000000001
 43
0.0000000001
 44
0.00000001
 40
0.0
 40
0.0
 40
0.0
 40
0.0
 40
6.412700964384761
 40
12.7863142515831
 40
12.7863142515831
 40
12.7863142515831
 40
12.7863142515831
 10
-1470.240078976414
 20
1010.635103957077
 30
0.0
 10
-1470.238701579252
 20
1008.49753506362
 30
0.0
 10
-1470.235955180649
 20
1004.235426514048
 30
0.0
 10
-1470.216284891474
 20
999.9733625048032
 30
0.0
 10
-1470.206479812857
 20
997.848845050772
 30
0.0
 11
-1470.240078976414
 21
1010.635103957077
 31
0.0
 11
-1470.231689904635
 21
1004.222408479971
 31
0.0
 11
-1470.206479812857
 21
997.848845050772
 31
0.0
  0
SPLINE
  5
1F0
330
1F
100
AcDbEntity
  8
0
  6
Continuous
 62
     2
100
AcDbSpline
210
0.0
220
0.0
230
1.0
 70
     8
 71
     3
 72
    18
 73
    14
 74
    12
 42
0.0000000001
 43
0.0000000001
 44
0.00000001
 40
0.0
 40
0.0
 40
0.0
 40
0.0
 40
0.4567189110873739
 40
0.9045527813200032
 40
1.187851363605642
 40
1.451562726560656
 40
1.689827803395982
 40
1.897624958044175
 40
2.071165734863828
 40
2.208078147898033
 40
2.307483468756201
 40
2.369986725386063
 40
2.397437221071533
 40
2.397437221071533
 40
2.397437221071533
 40
2.397437221071533
 10
-1473.682999068952
 20
1033.875632611765
 30
0.0
 10
-1473.682913589645
 20
1034.027872226018
 30
0.0
 10
-1473.682744293952
 20
1034.329389774682
 30
0.0
 10
-1473.682673745826
 20
1034.725340231428
 30
0.0
 10
-1473.682666176363
 20
1035.056954835249
 30
0.0
 10
-1473.682686715193
 20
1035.318713178629
 30
0.0
 10
-1473.682713666725
 20
1035.555304365276
 30
0.0
 10
-1473.682735841751
 20
1035.761838730254
 30
0.0
 10
-1473.682717312753
 20
1035.934588761804
 30
0.0
 10
-1473.682696516878
 20
1036.071208481292
 30
0.0
 10
-1473.682532202324
 20
1036.170814928033
 30
0.0
 10
-1473.68249345175
 20
1036.233935434211
 30
0.0
 10
-1473.682174597855
 20
1036.263918431571
 30
0.0
 10
-1473.682077295661
 20
1036.273068112585
 30
0.0
 11
-1473.682999068952
 21
1033.875632611765
 31
0.0
 11
-1473.682772094697
 21
1034.332351466453
 31
0.0
 11
-1473.682678178231
 21
1034.780185326838
 31
0.0
 11
-1473.68267098118
 21
1035.063483909032
 31
0.0
 11
-1473.682689017872
 21
1035.32719527137
 31
0.0
 11
-1473.682714545833
 21
1035.565460346838
 31
0.0
 11
-1473.682728966903
 21
1035.773257500986
 31
0.0
 11
-1473.682714549404
 21
1035.946798277207
 31
0.0
 11
-1473.682655021644
 21
1036.0837106773
 31
0.0
 11
-1473.682532980773
 21
1036.183115923243
 31
0.0
 11
-1473.682341223526
 21
1036.24561888572
 31
0.0
 11
-1473.682077295661
 21
1036.273068112585
 31
0.0
  0
SPLINE
  5
1F1
330
1F
100
AcDbEntity
  8
0
  6
Continuous
 62
     2
100
AcDbSpline
210
0.0
220
0.0
230
1.0
 70
     8
 71
     3
 72
    19
 73
    15
 74
    13
 42
0.0000000001
 43
0.0000000001
 44
0.00000001
 40
0.0
 40
0.0
 40
0.0
 40
0.0
 40
0.3524685846252931
 40
0.6921077886854724
 40
1.01268753995829
 40
1.258127440674582
 40
1.484487727110274
 40
1.689824399727297
 40
1.895671835548239
 40
2.069247696234254
 40
2.208074021859159
 40
2.305320841962624
 40
2.368662679867853
 40
2.397431079220966
 40
2.397431079220966
 40
2.397431079220966
 40
2.397431079220966
 10
-1542.365924701243
 20
1033.875636774809
 30
0.0
 10
-1542.365924673732
 20
1033.993126303017
 30
0.0
 10
-1542.365924619709
 20
1034.223828899246
 30
0.0
 10
-1542.365924582222
 20
1034.561391412565
 30
0.0
 10
-1542.365924564542
 20
1034.863277697915
 30
0.0
 10
-1542.365924556675
 20
1035.127404344057
 30
0.0
 10
-1542.365924553746
 20
1035.353116630646
 30
0.0
 10
-1542.365924553289
 20
1035.565631428937
 30
0.0
 10
-1542.365924552988
 20
1035.760551418645
 30
0.0
 10
-1542.365924555264
 20
1035.93330129269
 30
0.0
 10
-1542.365924562498
 20
1036.069850961494
 30
0.0
 10
-1542.365924576329
 20
1036.169655956039
 30
0.0
 10
-1542.365924591727
 20
1036.23277497516
 30
0.0
 10
-1542.365924598544
 20
1036.263478387579
 30
0.0
 10
-1542.365924600673
 20
1036.27306785403
 30
0.0
 11
-1542.365924701243
 21
1033.875636774809
 31
0.0
 11
-1542.365924626074
 21
1034.228105359434
 31
0.0
 11
-1542.365924584574
 21
1034.567744563494
 31
0.0
 11
-1542.365924564817
 21
1034.888324314767
 31
0.0
 11
-1542.365924557201
 21
1035.133764215484
 31
0.0
 11
-1542.365924554084
 21
1035.360124501919
 31
0.0
 11
-1542.36592455331
 21
1035.565461174536
 31
0.0
 11
-1542.36592455352
 21
1035.771308610357
 31
0.0
 11
-1542.365924556696
 21
1035.944884471043
 31
0.0
 11
-1542.365924565562
 21
1036.083710796668
 31
0.0
 11
-1542.365924579964
 21
1036.180957616772
 31
0.0
 11
-1542.36592459422
 21
1036.244299454677
 31
0.0
 11
-1542.365924600673
 21
1036.27306785403
 31
0.0
  0
SPLINE
  5
1F2
330
1F
100
AcDbEntity
  8
0
  6
Continuous
 62
     2
100
AcDbSpline
210
0.0
220
0.0
230
1.0
 70
     8
 71
     3
 72
    15
 73
    11
 74
     9
 42
0.0000000001
 43
0.0000000001
 44
0.00000001
 40
0.0
 40
0.0
 40
0.0
 40
0.0
 40
0.69455912365309
 40
1.39108007678336
 40
2.089460443542673
 40
2.785027014009721
 40
3.487203937429288
 40
4.188864325389678
 40
4.894168791989744
 40
5.597349695365788
 40
5.597349695365788
 40
5.597349695365788
 40
5.597349695365788
 10
-1542.365924701243
 20
1033.875636774809
 30
0.0
 10
-1542.597802849376
 20
1033.861274764271
 30
0.0
 10
-1543.06221410124
 20
1033.832510176718
 30
0.0
 10
-1543.730254325488
 20
1033.610321269739
 30
0.0
 10
-1544.339631553413
 20
1033.264397828333
 30
0.0
 10
-1544.868479568987
 20
1032.800380361082
 30
0.0
 10
-1545.297188176138
 20
1032.241361437557
 30
0.0
 10
-1545.610153555503
 20
1031.607999997127
 30
0.0
 10
-1545.807281201892
 20
1030.926383193853
 30
0.0
 10
-1545.830120133834
 20
1030.456132655957
 30
0.0
 10
-1545.841522382759
 20
1030.22136188368
 30
0.0
 11
-1542.365924701243
 21
1033.875636774809
 31
0.0
 11
-1543.056658869824
 21
1033.802844710653
 31
0.0
 11
-1543.719846341245
 21
1033.589950803037
 31
0.0
 11
-1544.326734246258
 21
1033.244375619576
 31
0.0
 11
-1544.850164897321
 21
1032.78630007179
 31
0.0
 11
-1545.277688776295
 21
1032.229276046554
 31
0.0
 11
-1545.590378968746
 21
1031.601142188545
 31
0.0
 11
-1545.780212467021
 21
1030.921864900879
 31
0.0
 11
-1545.841522382759
 21
1030.22136188368
 31
0.0
  0
SPLINE
  5
1F3
330
1F
100
AcDbEntity
  8
0
  6
Continuous
 62
     2
100
AcDbSpline
210
0.0
220
0.0
230
1.0
 70
     8
 71
     3
 72
    23
 73
    19
 74
    17
 42
0.0000000001
 43
0.0000000001
 44
0.00000001
 40
0.0
 40
0.0
 40
0.0
 40
0.0
 40
0.643941764691083
 40
1.28889359126406
 40
1.935990298104954
 40
2.582209359085479
 40
3.223300003128606
 40
3.863281081144039
 40
4.503046675116059
 40
5.142046408092156
 40
5.777385233075731
 40
6.412206756204679
 40
7.047937219814834
 40
7.683288261228354
 40
8.314960731561897
 40
8.945721668000234
 40
9.575070028447689
 40
10.20383253764361
 40
10.20383253764361
 40
10.20383253764361
 40
10.20383253764361
 10
-1542.365924600673
 20
1036.27306785403
 30
0.0
 10
-1542.580655852634
 20
1036.266731902836
 30
0.0
 10
-1543.010455175604
 20
1036.254050062123
 30
0.0
 10
-1543.649574278209
 20
1036.153639137189
 30
0.0
 10
-1544.276581501742
 20
1035.99439376864
 30
0.0
 10
-1544.883447861526
 20
1035.77307555442
 30
0.0
 10
-1545.46300181425
 20
1035.493479489246
 30
0.0
 10
-1546.009998475177
 20
1035.158639461493
 30
0.0
 10
-1546.520625335571
 20
1034.771803419055
 30
0.0
 10
-1546.989848722285
 20
1034.337947510268
 30
0.0
 10
-1547.413004732268
 20
1033.861252881063
 30
0.0
 10
-1547.786683785115
 20
1033.346214756088
 30
0.0
 10
-1548.108153907908
 20
1032.797075489126
 30
0.0
 10
-1548.374464058685
 20
1032.220372008916
 30
0.0
 10
-1548.583174391418
 20
1031.622056233204
 30
0.0
 10
-1548.731349343325
 20
1031.008326741237
 30
0.0
 10
-1548.82374565183
 20
1030.384029444406
 30
0.0
 10
-1548.834404311145
 20
1029.964474066154
 30
0.0
 10
-1548.839731159149
 20
1029.754794061997
 30
0.0
 11
-1542.365924600673
 21
1036.27306785403
 31
0.0
 11
-1543.009044261299
 21
1036.240539429081
 31
0.0
 11
-1543.646729580965
 21
1036.143997771328
 31
0.0
 11
-1544.273703425215
 21
1035.983879232015
 31
0.0
 11
-1544.880835344741
 21
1035.762542594591
 31
0.0
 11
-1545.45822179879
 21
1035.483935170855
 31
0.0
 11
-1546.004092719562
 21
1035.149868234339
 31
0.0
 11
-1546.514112293179
 21
1034.763629901495
 31
0.0
 11
-1546.983217997828
 21
1034.329739942393
 31
0.0
 11
-1547.404990154565
 21
1033.854593996043
 31
0.0
 11
-1547.77781647408
 21
1033.340785761675
 31
0.0
 11
-1548.099089144716
 21
1032.792208425774
 31
0.0
 11
-1548.365425888686
 21
1032.215375967744
 31
0.0
 11
-1548.573271146981
 21
1031.618877469522
 31
0.0
 11
-1548.722174414318
 21
1031.005944213846
 31
0.0
 11
-1548.811041644017
 21
1030.38290169982
 31
0.0
 11
-1548.839731159149
 21
1029.754794061997
 31
0.0
  0
SPLINE
  5
1F4
330
1F
100
AcDbEntity
  8
0
  6
Continuous
 62
     2
100
AcDbSpline
210
0.0
220
0.0
230
1.0
 70
     8
 71
     3
 72
    15
 73
    11
 74
     9
 42
0.0000000001
 43
0.0000000001
 44
0.00000001
 40
0.0
 40
0.0
 40
0.0
 40
0.0
 40
0.7029349598314804
 40
1.407986382617636
 40
2.108605500643898
 40
2.809757930808279
 40
3.506145207019788
 40
4.205330283371162
 40
4.902334005503839
 40
5.597402977179102
 40
5.597402977179102
 40
5.597402977179102
 40
5.597402977179102
 10
-1470.206504305301
 20
1030.22223072868
 30
0.0
 10
-1470.21793794337
 20
1030.456917505354
 30
0.0
 10
-1470.240839644985
 20
1030.926997675811
 30
0.0
 10
-1470.43790826657
 20
1031.608091274741
 30
0.0
 10
-1470.750507015435
 20
1032.24075510437
 30
0.0
 10
-1471.178776338488
 20
1032.7995624399
 30
0.0
 10
-1471.707584588925
 20
1033.263944049693
 30
0.0
 10
-1472.317534438607
 20
1033.610333158849
 30
0.0
 10
-1472.986209026631
 20
1033.83254494116
 30
0.0
 10
-1473.450951026311
 20
1033.861283368781
 30
0.0
 10
-1473.682999068952
 20
1033.875632611765
 30
0.0
 11
-1470.206504305301
 21
1030.22223072868
 31
0.0
 11
-1470.267895493392
 21
1030.922479741373
 31
0.0
 11
-1470.457742587871
 21
1031.601490484654
 31
0.0
 11
-1470.769947502478
 21
1032.228702761191
 31
0.0
 11
-1471.196665704966
 21
1032.785053645069
 31
0.0
 11
-1471.720527187178
 21
1033.243883009783
 31
0.0
 11
-1472.328066870037
 21
1033.589939803885
 31
0.0
 11
-1472.991748844201
 21
1033.802872717819
 31
0.0
 11
-1473.682999068952
 21
1033.875632611765
 31
0.0
  0
SPLINE
  5
1F5
330
1F
100
AcDbEntity
  8
0
  6
Continuous
 62
     2
100
AcDbSpline
210
0.0
220
0.0
230
1.0
 70
     8
 71
     3
 72
    19
 73
    15
 74
    13
 42
0.0000000001
 43
0.0000000001
 44
0.00000001
 40
0.0
 40
0.0
 40
0.0
 40
0.0
 40
0.5358637781338336
 40
1.083870222733649
 40
1.441042280834048
 40
1.779949877641294
 40
2.091075140307916
 40
2.365935281900604
 40
2.597977449827663
 40
2.784125841182431
 40
2.923888161223145
 40
3.020795303092853
 40
3.056001552434359
 40
3.085193669324145
 40
3.085193669324145
 40
3.085193669324145
 40
3.085193669324145
 10
-1470.206504305301
 20
1030.22223072868
 30
0.0
 10
-1470.027886493347
 20
1030.219957499421
 30
0.0
 10
-1469.666603392069
 20
1030.215359529558
 30
0.0
 10
-1469.186727511438
 20
1030.191363683491
 30
0.0
 10
-1468.773246648418
 20
1030.159250148574
 30
0.0
 10
-1468.439285023954
 20
1030.124341926988
 30
0.0
 10
-1468.133714683949
 20
1030.082967955647
 30
0.0
 10
-1467.865086336582
 20
1030.035635872806
 30
0.0
 10
-1467.639734646353
 20
1029.984250655845
 30
0.0
 10
-1467.46144484244
 20
1029.93054642885
 30
0.0
 10
-1467.33118114004
 20
1029.875764057142
 30
0.0
 10
-1467.254553738381
 20
1029.825787744598
 30
0.0
 10
-1467.218599927123
 20
1029.784489965694
 30
0.0
 10
-1467.211492623685
 20
1029.764056436892
 30
0.0
 10
-1467.208270845791
 20
1029.754793811205
 30
0.0
 11
-1470.206504305301
 21
1030.22223072868
 31
0.0
 11
-1469.670735857064
 21
1030.212123375457
 31
0.0
 11
-1469.123393812463
 21
1030.185146542147
 31
0.0
 11
-1468.767320090888
 21
1030.157157546246
 31
0.0
 11
-1468.430283101109
 21
1030.121598768224
 31
0.0
 11
-1468.122063478087
 21
1030.079177157536
 31
0.0
 11
-1467.851506398784
 21
1030.030731680191
 31
0.0
 11
-1467.625534985217
 21
1029.978001347868
 31
0.0
 11
-1467.447840746455
 21
1029.922539819627
 31
0.0
 11
-1467.320143627575
 21
1029.865733552959
 31
0.0
 11
-1467.241354171206
 21
1029.809313559069
 31
0.0
 11
-1467.219425255563
 21
1029.781770816805
 31
0.0
 11
-1467.208270845791
 21
1029.754793811205
 31
0.0
  0
SPLINE
  5
1F6
330
1F
100
AcDbEntity
  8
0
  6
Continuous
 62
     2
100
AcDbSpline
210
0.0
220
0.0
230
1.0
 70
     8
 71
     3
 72
    20
 73
    16
 74
    14
 42
0.0000000001
 43
0.0000000001
 44
0.00000001
 40
0.0
 40
0.0
 40
0.0
 40
0.0
 40
0.095401815531679
 40
0.1873033401933994
 40
0.2316067335333944
 40
0.2696900785384918
 40
0.3016243210720424
 40
0.3274804069220716
 40
0.3473292818033471
 40
0.3904130100922582
 40
0.427046436589395
 40
0.4567728745049806
 40
0.4789917279457073
 40
0.493365125956392
 40
0.4996956314332814
 40
0.4996956314332814
 40
0.4996956314332814
 40
0.4996956314332814
 10
-1466.179213099784
 20
1030.284206883994
 30
0.0
 10
-1466.21101370384
 20
1030.284215419678
 30
0.0
 10
-1466.27344814837
 20
1030.284232177873
 30
0.0
 10
-1466.350650392351
 20
1030.284243035781
 30
0.0
 10
-1466.408746479935
 20
1030.284246538148
 30
0.0
 10
-1466.446853473588
 20
1030.284246465258
 30
0.0
 10
-1466.478811364673
 20
1030.28424449421
 30
0.0
 10
-1466.504691098927
 20
1030.284241376763
 30
0.0
 10
-1466.534287328143
 20
1030.284236213656
 30
0.0
 10
-1466.567476003747
 20
1030.284227387789
 30
0.0
 10
-1466.603957198056
 20
1030.284212533242
 30
0.0
 10
-1466.633483431933
 20
1030.284191600169
 30
0.0
 10
-1466.655589649807
 20
1030.284173075722
 30
0.0
 10
-1466.669897225941
 20
1030.284147373371
 30
0.0
 10
-1466.676798525885
 20
1030.284153951606
 30
0.0
 10
-1466.678908694004
 20
1030.284155962993
 30
0.0
 11
-1466.179213099784
 21
1030.284206883994
 31
0.0
 11
-1466.274614912412
 21
1030.284230421495
 31
0.0
 11
-1466.366516436128
 21
1030.284243606283
 31
0.0
 11
-1466.410819829394
 21
1030.2842461692
 31
0.0
 11
-1466.448903174399
 21
1030.28424604869
 31
0.0
 11
-1466.480837416868
 21
1030.284244023482
 31
0.0
 11
-1466.506693502526
 21
1030.284240872302
 31
0.0
 11
-1466.526542377099
 21
1030.28423737388
 31
0.0
 11
-1466.569626103812
 21
1030.284225719653
 31
0.0
 11
-1466.606259526745
 21
1030.284209561444
 31
0.0
 11
-1466.635985957615
 21
1030.284189094424
 31
0.0
 11
-1466.658204799643
 21
1030.284166574088
 31
0.0
 11
-1466.67257818996
 21
1030.284151702913
 31
0.0
 11
-1466.678908694004
 21
1030.284155962993
 31
0.0
  0
SPLINE
  5
1F7
330
1F
100
AcDbEntity
  8
0
  6
Continuous
 62
     2
100
AcDbSpline
210
0.0
220
0.0
230
1.0
 70
     8
 71
     3
 72
    31
 73
    27
 74
    25
 42
0.0000000001
 43
0.0000000001
 44
0.00000001
 40
0.0
 40
0.0
 40
0.0
 40
0.0
 40
0.0408534809198863
 40
0.0782171694316232
 40
0.1118175096865841
 40
0.141380945834687
 40
0.1666339220280441
 40
0.187302882416654
 40
0.2246561304648535
 40
0.2576816908440164
 40
0.2864206226912684
 40
0.3109139851446386
 40
0.3312028373416943
 40
0.3473282384206787
 40
0.3757583532688117
 40
0.3996304952070428
 40
0.4193062520866528
 40
0.4351472117591372
 40
0.4475149620755204
 40
0.456771090887033
 40
0.472215466807529
 40
0.4834307698004692
 40
0.4911016192315831
 40
0.4959126344677877
 40
0.4985484348801885
 40
0.4996936398652942
 40
0.4996936398652942
 40
0.4996936398652942
 40
0.4996936398652942
 10
-1473.174943313201
 20
1037.279889976625
 30
0.0
 10
-1473.174943324699
 20
1037.266272149652
 30
0.0
 10
-1473.174943346712
 20
1037.240199759841
 30
0.0
 10
-1473.174943482854
 20
1037.202927256613
 30
0.0
 10
-1473.174943666289
 20
1037.169418101641
 30
0.0
 10
-1473.174943880319
 20
1037.139945850776
 30
0.0
 10
-1473.174944099348
 20
1037.114784059868
 30
0.0
 10
-1473.174944371212
 20
1037.087025664992
 30
0.0
 10
-1473.174944685062
 20
1037.056676408722
 30
0.0
 10
-1473.174945048844
 20
1037.023637161966
 30
0.0
 10
-1473.174945385068
 20
1036.994884543741
 30
0.0
 10
-1473.174945687993
 20
1036.970377494911
 30
0.0
 10
-1473.174945952074
 20
1036.950074956335
 30
0.0
 10
-1473.174946246299
 20
1036.928460166963
 30
0.0
 10
-1473.174946575503
 20
1036.905650947677
 30
0.0
 10
-1473.174946951827
 20
1036.881658276458
 30
0.0
 10
-1473.174947289657
 20
1036.861861990297
 30
0.0
 10
-1473.174947585775
 20
1036.845900501344
 30
0.0
 10
-1473.17494783837
 20
1036.833412221746
 30
0.0
 10
-1473.174948106966
 20
1036.821056136733
 30
0.0
 10
-1473.174948407745
 20
1036.809084200827
 30
0.0
 10
-1473.174948697608
 20
1036.797640691387
 30
0.0
 10
-1473.174948968356
 20
1036.789741635494
 30
0.0
 10
-1473.174948975972
 20
1036.784702413821
 30
0.0
 10
-1473.174949106918
 20
1036.781838406911
 30
0.0
 10
-1473.174948774379
 20
1036.780578071818
 30
0.0
 10
-1473.174948673658
 20
1036.780196336835
 30
0.0
 11
-1473.174943313201
 21
1037.279889976625
 31
0.0
 11
-1473.174943367669
 21
1037.239036495705
 31
0.0
 11
-1473.174943499381
 21
1037.201672807194
 31
0.0
 11
-1473.174943684308
 21
1037.168072466939
 31
0.0
 11
-1473.174943898421
 21
1037.138509030792
 31
0.0
 11
-1473.17494411769
 21
1037.1132560546
 31
0.0
 11
-1473.174944318087
 21
1037.092587094212
 31
0.0
 11
-1473.174944704403
 21
1037.055233846166
 31
0.0
 11
-1473.174945068598
 21
1037.022208285789
 31
0.0
 11
-1473.174945405066
 21
1036.993469353943
 31
0.0
 11
-1473.174945708204
 21
1036.968975991492
 31
0.0
 11
-1473.174945972405
 21
1036.948687139296
 31
0.0
 11
-1473.174946192064
 21
1036.932561738219
 31
0.0
 11
-1473.174946603881
 21
1036.904131623374
 31
0.0
 11
-1473.174946979789
 21
1036.880259481439
 31
0.0
 11
-1473.174947316873
 21
1036.860583724562
 31
0.0
 11
-1473.174947612219
 21
1036.844742764892
 31
0.0
 11
-1473.174947862913
 21
1036.832375014578
 31
0.0
 11
-1473.174948066041
 21
1036.823118885769
 31
0.0
 11
-1473.174948443777
 21
1036.807674509853
 31
0.0
 11
-1473.174948747396
 21
1036.796459206864
 31
0.0
 11
-1473.174948949544
 21
1036.788788357436
 31
0.0
 11
-1473.174949022872
 21
1036.7839773422
 31
0.0
 11
-1473.174948940027
 21
1036.781341541789
 31
0.0
 11
-1473.174948673658
 21
1036.780196336835
 31
0.0
  0
SPLINE
  5
1F8
330
1F
100
AcDbEntity
  8
0
  6
Continuous
 62
     2
100
AcDbSpline
210
0.0
220
0.0
230
1.0
 70
     8
 71
     3
 72
    23
 73
    19
 74
    17
 42
0.0000000001
 43
0.0000000001
 44
0.00000001
 40
0.0
 40
0.0
 40
0.0
 40
0.0
 40
0.6292925423865089
 40
1.259242404944497
 40
1.890721592269193
 40
2.522767089961127
 40
3.156608848545201
 40
3.790364615530096
 40
4.423166209591708
 40
5.057052188254429
 40
5.697229229320012
 40
6.338711446163762
 40
6.980355633183059
 40
7.622753414740204
 40
8.268856378387781
 40
8.915550718815094
 40
9.56017133514824
 40
10.20385015045552
 40
10.20385015045552
 40
10.20385015045552
 40
10.20385015045552
 10
-1467.208270845791
 20
1029.754793811205
 30
0.0
 10
-1467.21362341178
 20
1029.964650868688
 30
0.0
 10
-1467.224334134718
 20
1030.38458418739
 30
0.0
 10
-1467.317019522583
 20
1031.00946458913
 30
0.0
 10
-1467.465366328538
 20
1031.623727279176
 30
0.0
 10
-1467.674014421436
 20
1032.221921859945
 30
0.0
 10
-1467.940044331765
 20
1032.797614848432
 30
0.0
 10
-1468.260683135063
 20
1033.345100602822
 30
0.0
 10
-1468.633074479128
 20
1033.858814266874
 30
0.0
 10
-1469.055435617555
 20
1034.335185674474
 30
0.0
 10
-1469.52472388637
 20
1034.769680734687
 30
0.0
 10
-1470.036372771193
 20
1035.157705343601
 30
0.0
 10
-1470.58477935649
 20
1035.49326151154
 30
0.0
 10
-1471.165253742696
 20
1035.773124899014
 30
0.0
 10
-1471.772295935674
 20
1035.994703991961
 30
0.0
 10
-1472.399005941765
 20
1036.154011334916
 30
0.0
 10
-1473.037832700756
 20
1036.254157186872
 30
0.0
 10
-1473.467433782841
 20
1036.266767543581
 30
0.0
 10
-1473.682077295661
 20
1036.273068112585
 30
0.0
 11
-1467.208270845791
 21
1029.754793811205
 31
0.0
 11
-1467.237069935221
 21
1030.383427024097
 31
0.0
 11
-1467.326170048694
 21
1031.007043892949
 31
0.0
 11
-1467.475301444951
 21
1031.620660866862
 31
0.0
 11
-1467.683307740231
 21
1032.217498275439
 31
0.0
 11
-1467.949146208398
 21
1032.792898382988
 31
0.0
 11
-1468.269478543883
 21
1033.33973800027
 31
0.0
 11
-1468.640937647951
 21
1033.852042588823
 31
0.0
 11
-1469.061451766663
 21
1034.326362428075
 31
0.0
 11
-1469.531130877786
 21
1034.76136607919
 31
0.0
 11
-1470.042353370155
 21
1035.148859302127
 31
0.0
 11
-1470.589673180342
 21
1035.4837447872
 31
0.0
 11
-1471.168285059643
 21
1035.762820409355
 31
0.0
 11
-1471.775272193622
 21
1035.984215212406
 31
0.0
 11
-1472.401836012319
 21
1036.144313154432
 31
0.0
 11
-1473.039214354057
 21
1036.240669723929
 31
0.0
 11
-1473.682077295661
 21
1036.273068112585
 31
0.0
  0
SPLINE
  5
1F9
330
1F
100
AcDbEntity
  8
0
  6
Continuous
 62
     2
100
AcDbSpline
210
0.0
220
0.0
230
1.0
 70
     8
 71
     3
 72
    21
 73
    17
 74
    15
 42
0.0000000001
 43
0.0000000001
 44
0.00000001
 40
0.0
 40
0.0
 40
0.0
 40
0.0
 40
0.0599886069389629
 40
0.1118175173142965
 40
0.1545635086513252
 40
0.1873033557848953
 40
0.24497565630258
 40
0.298538021896967
 40
0.3473293090571642
 40
0.3811083502419048
 40
0.4196956626269999
 40
0.4567729167473468
 40
0.4704130736565333
 40
0.4836765358886012
 40
0.494218876578536
 40
0.4996956713592111
 40
0.4996956713592111
 40
0.4996956713592111
 40
0.4996956713592111
 10
-1542.87305401607
 20
1037.279891956892
 30
0.0
 10
-1542.873070167919
 20
1037.259895760973
 30
0.0
 10
-1542.873100274629
 20
1037.222623267119
 30
0.0
 10
-1542.873124889499
 20
1037.171102102679
 30
0.0
 10
-1542.873136958652
 20
1037.128663854596
 30
0.0
 10
-1542.873142103188
 20
1037.084277808473
 30
0.0
 10
-1542.873144388999
 20
1037.036286304083
 30
0.0
 10
-1542.873142536568
 20
1036.982944319611
 30
0.0
 10
-1542.873136333749
 20
1036.937566755299
 30
0.0
 10
-1542.873126317726
 20
1036.897180876191
 30
0.0
 10
-1542.873112183983
 20
1036.860699676317
 30
0.0
 10
-1542.873094343641
 20
1036.8309314398
 30
0.0
 10
-1542.873073493699
 20
1036.809604491819
 30
0.0
 10
-1542.873062214492
 20
1036.797122511111
 30
0.0
 10
-1542.873051369558
 20
1036.787361649032
 30
0.0
 10
-1542.873052645382
 20
1036.782021936962
 30
0.0
 10
-1542.873053081574
 20
1036.780196338617
 30
0.0
 11
-1542.87305401607
 21
1037.279891956892
 31
0.0
 11
-1542.873098931653
 21
1037.219903366768
 31
0.0
 11
-1542.87312450522
 21
1037.168074462702
 31
0.0
 11
-1542.873136547724
 21
1037.125328473061
 31
0.0
 11
-1542.873140870113
 21
1037.092588626213
 31
0.0
 11
-1542.873143633382
 21
1037.034916325762
 31
0.0
 11
-1542.873141528651
 21
1036.981353960208
 31
0.0
 11
-1542.873134579952
 21
1036.932562673543
 31
0.0
 11
-1542.873125982477
 21
1036.898783633452
 31
0.0
 11
-1542.873110599113
 21
1036.860196324134
 31
0.0
 11
-1542.873086243391
 21
1036.823119078013
 31
0.0
 11
-1542.873073541514
 21
1036.809478927018
 31
0.0
 11
-1542.873060883917
 21
1036.796215470825
 31
0.0
 11
-1542.873052615603
 21
1036.785673133378
 31
0.0
 11
-1542.873053081574
 21
1036.780196338617
 31
0.0
  0
SPLINE
  5
1FA
330
1F
100
AcDbEntity
  8
0
  6
Continuous
 62
     2
100
AcDbSpline
210
0.0
220
0.0
230
1.0
 70
     8
 71
     3
 72
    24
 73
    20
 74
    18
 42
0.0000000001
 43
0.0000000001
 44
0.00000001
 40
0.0
 40
0.0
 40
0.0
 40
0.0
 40
0.0271948686852604
 40
0.0604583461131526
 40
0.0988546853920764
 40
0.1414481396320288
 40
0.1873029619425598
 40
0.2123838190979558
 40
0.2421777847757026
 40
0.2754338676045152
 40
0.3109010762131179
 40
0.3473284192286574
 40
0.371965004042122
 40
0.4001947284048669
 40
0.4293520438737287
 40
0.4567714020045094
 40
0.4789900481147501
 40
0.4933631881909733
 40
0.4996934123812193
 40
0.4996934123812193
 40
0.4996934123812193
 40
0.4996934123812193
 10
-1549.868787432268
 20
1030.28416110941
 30
0.0
 10
-1549.85972247604
 20
1030.284161055749
 30
0.0
 10
-1549.839569694002
 20
1030.284160936452
 30
0.0
 10
-1549.806618132206
 20
1030.284160727379
 30
0.0
 10
-1549.768533708557
 20
1030.284160470987
 30
0.0
 10
-1549.726252169949
 20
1030.284160165646
 30
0.0
 10
-1549.688409125381
 20
1030.284159871101
 30
0.0
 10
-1549.654832577001
 20
1030.284159593038
 30
0.0
 10
-1549.625455608449
 20
1030.284159337481
 30
0.0
 10
-1549.592616522744
 20
1030.284159034487
 30
0.0
 10
-1549.557566311263
 20
1030.284158687844
 30
0.0
 10
-1549.525389265784
 20
1030.284158342944
 30
0.0
 10
-1549.495624715057
 20
1030.2841579961
 30
0.0
 10
-1549.468283506844
 20
1030.284157652763
 30
0.0
 10
-1549.440014707526
 20
1030.284157247064
 30
0.0
 10
-1549.413749600958
 20
1030.284156841986
 30
0.0
 10
-1549.39241255286
 20
1030.284156346264
 30
0.0
 10
-1549.378105216065
 20
1030.284156087553
 30
0.0
 10
-1549.371204094658
 20
1030.284155621262
 30
0.0
 10
-1549.369094019933
 20
1030.28415547869
 30
0.0
 11
-1549.868787432268
 21
1030.28416110941
 31
0.0
 11
-1549.841592563583
 21
1030.284160946693
 31
0.0
 11
-1549.808329086156
 21
1030.284160736241
 31
0.0
 11
-1549.769932746878
 21
1030.284160477436
 31
0.0
 11
-1549.727339292639
 21
1030.284160169656
 31
0.0
 11
-1549.68148447033
 21
1030.284159812282
 31
0.0
 11
-1549.656403613175
 21
1030.284159604452
 31
0.0
 11
-1549.626609647499
 21
1030.284159345045
 31
0.0
 11
-1549.593353564671
 21
1030.28415903773
 31
0.0
 11
-1549.557886356065
 21
1030.284158686175
 31
0.0
 11
-1549.521459013051
 21
1030.28415829405
 31
0.0
 11
-1549.496822428239
 21
1030.284158006595
 31
0.0
 11
-1549.468592703879
 21
1030.284157648342
 31
0.0
 11
-1549.439435388413
 21
1030.284157233384
 31
0.0
 11
-1549.412016030286
 21
1030.284156775818
 31
0.0
 11
-1549.389797384181
 21
1030.284156308669
 31
0.0
 11
-1549.375424244111
 21
1030.28415587448
 31
0.0
 11
-1549.369094019933
 21
1030.28415547869
 31
0.0
  0
SPLINE
  5
1FB
330
1F
100
AcDbEntity
  8
0
  6
Continuous
 62
     2
100
AcDbSpline
210
0.0
220
0.0
230
1.0
 70
     8
 71
     3
 72
    19
 73
    15
 74
    13
 42
0.0000000001
 43
0.0000000001
 44
0.00000001
 40
0.0
 40
0.0
 40
0.0
 40
0.0
 40
0.0292390934664308
 40
0.0645257394788971
 40
0.1612397150868949
 40
0.3006985402754118
 40
0.4867448345966795
 40
0.7187099641515389
 40
0.9935151142751066
 40
1.304607034828153
 40
1.643501759170477
 40
2.000672120687453
 40
2.548689726409199
 40
3.084560397180653
 40
3.084560397180653
 40
3.084560397180653
 40
3.084560397180653
 10
-1548.839731159149
 20
1029.754794061997
 30
0.0
 10
-1548.836494837075
 20
1029.764069133206
 30
0.0
 10
-1548.829352821017
 20
1029.784537648385
 30
0.0
 10
-1548.793290155618
 20
1029.825722640818
 30
0.0
 10
-1548.716666223711
 20
1029.875425972174
 30
0.0
 10
-1548.586473711383
 20
1029.929864468133
 30
0.0
 10
-1548.408247357919
 20
1029.983209884315
 30
0.0
 10
-1548.182899866566
 20
1030.034256749646
 30
0.0
 10
-1547.914276476386
 20
1030.081288811265
 30
0.0
 10
-1547.608711900891
 20
1030.122443820328
 30
0.0
 10
-1547.274756205679
 20
1030.157241748084
 30
0.0
 10
-1546.861280171108
 20
1030.189392099491
 30
0.0
 10
-1546.381418769705
 20
1030.213670124346
 30
0.0
 10
-1546.020138243785
 20
1030.21881719131
 30
0.0
 10
-1545.841522382759
 20
1030.22136188368
 30
0.0
 11
-1548.839731159149
 21
1029.754794061997
 31
0.0
 11
-1548.8285253608
 21
1029.781800629163
 31
0.0
 11
-1548.806476070665
 21
1029.809350151688
 31
0.0
 11
-1548.727698518778
 21
1029.865454433134
 31
0.0
 11
-1548.600160782876
 21
1029.921871539086
 31
0.0
 11
-1548.422467700052
 21
1029.976993149616
 31
0.0
 11
-1548.196496176135
 21
1030.029382954996
 31
0.0
 11
-1547.9259409657
 21
1030.077525956989
 31
0.0
 11
-1547.617724427206
 21
1030.119724872051
 31
0.0
 11
-1547.280688777962
 21
1030.155173501439
 31
0.0
 11
-1546.924619108389
 21
1030.183192380008
 31
0.0
 11
-1546.377283414489
 21
1030.210522479969
 31
0.0
 11
-1545.841522382759
 21
1030.22136188368
 31
0.0
  0
SPLINE
  5
1FC
330
1F
100
AcDbEntity
  8
0
  6
Continuous
 62
     2
100
AcDbSpline
210
0.0
220
0.0
230
1.0
 70
     8
 71
     3
 72
     9
 73
     5
 74
     3
 42
0.0000000001
 43
0.0000000001
 44
0.00000001
 40
0.0
 40
0.0
 40
0.0
 40
0.0
 40
6.412700470091866
 40
12.78631327210837
 40
12.78631327210837
 40
12.78631327210837
 40
12.78631327210837
 10
-1545.807923174788
 20
1017.435103956969
 30
0.0
 10
-1545.809300579669
 20
1019.572672685657
 30
0.0
 10
-1545.812046993663
 20
1023.834780908727
 30
0.0
 10
-1545.831717297053
 20
1028.096844591411
 30
0.0
 10
-1545.841522382759
 20
1030.22136188368
 30
0.0
 11
-1545.807923174788
 21
1017.435103956969
 31
0.0
 11
-1545.816312269423
 21
1023.847798939752
 31
0.0
 11
-1545.841522382759
 21
1030.22136188368
 31
0.0
  0
SPLINE
  5
1FD
330
1F
100
AcDbEntity
  8
0
  6
Continuous
 62
     2
100
AcDbSpline
210
0.0
220
0.0
230
1.0
 70
     8
 71
     3
 72
     9
 73
     5
 74
     3
 42
0.0000000001
 43
0.0000000001
 44
0.00000001
 40
0.0
 40
0.0
 40
0.0
 40
0.0
 40
6.178574665234605
 40
12.31947926692894
 40
12.31947926692894
 40
12.31947926692894
 40
12.31947926692894
 10
-1548.806095680703
 20
1017.435372342729
 30
0.0
 10
-1548.807478054503
 20
1019.494899206603
 30
0.0
 10
-1548.810234373928
 20
1023.601396234459
 30
0.0
 10
-1548.829918961018
 20
1027.707846972267
 30
0.0
 10
-1548.839731159149
 20
1029.754794061997
 30
0.0
 11
-1548.806095680703
 21
1017.435372342729
 31
0.0
 11
-1548.814500789915
 21
1023.613941290958
 31
0.0
 11
-1548.839731159149
 21
1029.754794061997
 31
0.0
  0
SPLINE
  5
1FE
330
1F
100
AcDbEntity
  8
0
  6
Continuous
 62
     2
100
AcDbSpline
210
0.0
220
0.0
230
1.0
 70
     8
 71
     3
 72
    19
 73
    15
 74
    13
 42
0.0000000001
 43
0.0000000001
 44
0.00000001
 40
0.0
 40
0.0
 40
0.0
 40
0.0
 40
0.5358637852258452
 40
1.083870240009768
 40
1.441042302094549
 40
1.7799498987705
 40
2.091075153397338
 40
2.365935277612233
 40
2.597977419964533
 40
2.784125773520941
 40
2.923887982530343
 40
3.020795045759046
 40
3.056001313892764
 40
3.085193436082828
 40
3.085193436082828
 40
3.085193436082828
 40
3.085193436082828
 10
-1545.841497826493
 20
997.8479774568435
 30
0.0
 10
-1546.020115639179
 20
997.8502507968649
 30
0.0
 10
-1546.381398742914
 20
997.8548489907761
 30
0.0
 10
-1546.861274621951
 20
997.8788449667848
 30
0.0
 10
-1547.274755486766
 20
997.9109585348465
 30
0.0
 10
-1547.608717112134
 20
997.9458667291744
 30
0.0
 10
-1547.914287452699
 20
997.9872406290659
 30
0.0
 10
-1548.182915800805
 20
998.0345726058505
 30
0.0
 10
-1548.408267491513
 20
998.0859576974749
 30
0.0
 10
-1548.586557274878
 20
998.1396617865494
 30
0.0
 10
-1548.716820952824
 20
998.1944440210698
 30
0.0
 10
-1548.793448354569
 20
998.24442021923
 30
0.0
 10
-1548.829402206313
 20
998.2857179428441
 30
0.0
 10
-1548.836509522653
 20
998.3061514764122
 30
0.0
 10
-1548.839731305775
 20
998.3154141024764
 30
0.0
 11
-1545.841497826493
 21
997.8479774568435
 31
0.0
 11
-1546.377266276138
 21
997.8580851114676
 31
0.0
 11
-1546.924608323069
 21
997.8850621043658
 31
0.0
 11
-1547.280682046458
 21
997.9130511280257
 31
0.0
 11
-1547.617719038979
 21
997.9486098788104
 31
0.0
 11
-1547.925938663925
 21
997.991031416556
 31
0.0
 11
-1548.196495744794
 21
998.0394767865605
 31
0.0
 11
-1548.422467161596
 21
998.0922069924777
 31
0.0
 11
-1548.600161401896
 21
998.1476683889263
 31
0.0
 11
-1548.727858467381
 21
998.2044745024506
 31
0.0
 11
-1548.80664792072
 21
998.2608943654966
 31
0.0
 11
-1548.828576878121
 21
998.2884370985348
 31
0.0
 11
-1548.839731305775
 21
998.3154141024764
 31
0.0
  0
SPLINE
  5
1FF
330
1F
100
AcDbEntity
  8
0
  6
Continuous
 62
     2
100
AcDbSpline
210
0.0
220
0.0
230
1.0
 70
     8
 71
     3
 72
    23
 73
    19
 74
    17
 42
0.0000000001
 43
0.0000000001
 44
0.00000001
 40
0.0
 40
0.0
 40
0.0
 40
0.0
 40
0.6292925021523983
 40
1.259242332860014
 40
1.890721509226303
 40
2.522766957626695
 40
3.156608394970743
 40
3.790363752283228
 40
4.423164914228094
 40
5.05705058457914
 40
5.697227897155482
 40
6.338710504644745
 40
6.980355062544347
 40
7.622753138964568
 40
8.268856177037302
 40
8.915550568758695
 40
9.560171203347409
 40
10.20384973792052
 40
10.20384973792052
 40
10.20384973792052
 40
10.20384973792052
 10
-1548.839731305775
 20
998.3154141024764
 30
0.0
 10
-1548.83437874151
 20
998.1055570583719
 30
0.0
 10
-1548.823668021948
 20
997.6856237636296
 30
0.0
 10
-1548.730982631835
 20
997.0607433892801
 30
0.0
 10
-1548.582635797695
 20
996.4464807375582
 30
0.0
 10
-1548.373987750599
 20
995.8482862782417
 30
0.0
 10
-1548.10795803215
 20
995.2725934906086
 30
0.0
 10
-1547.787319527153
 20
994.7251080112873
 30
0.0
 10
-1547.414928484684
 20
994.2113946016201
 30
0.0
 10
-1546.992567511191
 20
993.7350232581773
 30
0.0
 10
-1546.523279239044
 20
993.3005280293839
 30
0.0
 10
-1546.011630168949
 20
992.912503093816
 30
0.0
 10
-1545.463223342152
 20
992.5769466415342
 30
0.0
 10
-1544.882748750929
 20
992.2970831024202
 30
0.0
 10
-1544.275706401849
 20
992.0755040192576
 30
0.0
 10
-1543.64899633715
 20
991.9161967283724
 30
0.0
 10
-1543.010169665427
 20
991.8160507882803
 30
0.0
 10
-1542.580568671523
 20
991.803440389457
 30
0.0
 10
-1542.365925252644
 20
991.7971398008756
 30
0.0
 11
-1548.839731305775
 21
998.3154141024764
 31
0.0
 11
-1548.810932220673
 21
997.6867809296622
 31
0.0
 11
-1548.721832102543
 21
997.0631640936501
 31
0.0
 11
-1548.572700684701
 21
996.4495471362599
 31
0.0
 11
-1548.364694413682
 21
995.8527097714273
 31
0.0
 11
-1548.098856150348
 21
995.2773099231116
 31
0.0
 11
-1547.778524115709
 21
994.7304706043838
 31
0.0
 11
-1547.407065343829
 21
994.2181663087233
 31
0.0
 11
-1546.986551500926
 21
993.7438466369798
 31
0.0
 11
-1546.516872275501
 21
993.3088427097082
 31
0.0
 11
-1546.005649555917
 21
992.9213491398355
 31
0.0
 11
-1545.458329486404
 21
992.5864633679812
 31
0.0
 11
-1544.879717358118
 21
992.3073875833121
 31
0.0
 11
-1544.272730138259
 21
992.0859927985181
 31
0.0
 11
-1543.646166260619
 21
991.9258948799784
 31
0.0
 11
-1543.008787910385
 21
991.8295382445515
 31
0.0
 11
-1542.365925252644
 21
991.7971398008756
 31
0.0
  0
SPLINE
  5
200
330
1F
100
AcDbEntity
  8
0
  6
Continuous
 62
     2
100
AcDbSpline
210
0.0
220
0.0
230
1.0
 70
     8
 71
     3
 72
     9
 73
     5
 74
     3
 42
0.0000000001
 43
0.0000000001
 44
0.00000001
 40
0.0
 40
0.0
 40
0.0
 40
0.0
 40
6.140904253668678
 40
12.31947902386391
 40
12.31947902386391
 40
12.31947902386391
 40
12.31947902386391
 10
-1548.839731305775
 20
998.3154141024764
 30
0.0
 10
-1548.829919080194
 20
1000.362361076066
 30
0.0
 10
-1548.81023443731
 20
1004.468811732585
 30
0.0
 10
-1548.807478065345
 20
1008.575308679387
 30
0.0
 10
-1548.806095665143
 20
1010.634835578231
 30
0.0
 11
-1548.839731305775
 21
998.3154141024764
 31
0.0
 11
-1548.81450085469
 21
1004.456266525151
 31
0.0
 11
-1548.806095665143
 21
1010.634835578231
 31
0.0
  0
SPLINE
  5
201
330
1F
100
AcDbEntity
  8
0
  6
Continuous
 62
     2
100
AcDbSpline
210
0.0
220
0.0
230
1.0
 70
     8
 71
     3
 72
    24
 73
    20
 74
    18
 42
0.0000000001
 43
0.0000000001
 44
0.00000001
 40
0.0
 40
0.0
 40
0.0
 40
0.0
 40
0.0271949471953222
 40
0.0604584954182165
 40
0.0988549068632346
 40
0.1414484403871779
 40
0.1873033533612933
 40
0.2316067472319785
 40
0.2696900925183371
 40
0.3016243350673492
 40
0.3274804206522607
 40
0.3473292949701042
 40
0.3719659876977229
 40
0.4001958477942205
 40
0.4293533294544572
 40
0.4567728877353749
 40
0.4789917414228022
 40
0.4933651393254849
 40
0.4996956446639037
 40
0.4996956446639037
 40
0.4996956446639037
 40
0.4996956446639037
 10
-1549.868789036548
 20
997.7860511940362
 30
0.0
 10
-1549.859724061408
 20
997.7860395460575
 30
0.0
 10
-1549.839571245739
 20
997.7860136508327
 30
0.0
 10
-1549.806619614214
 20
997.7859937970588
 30
0.0
 10
-1549.76853511993
 20
997.7859783145836
 30
0.0
 10
-1549.726253501278
 20
997.7859691337388
 30
0.0
 10
-1549.682002888158
 20
997.7859639102592
 30
0.0
 10
-1549.639255670814
 20
997.7859613857063
 30
0.0
 10
-1549.601148676893
 20
997.78596144611
 30
0.0
 10
-1549.569190785793
 20
997.7859634221913
 30
0.0
 10
-1549.543311051816
 20
997.78596653195
 30
0.0
 10
-1549.519863834621
 20
997.7859706438932
 30
0.0
 10
-1549.495625359569
 20
997.7859763409189
 30
0.0
 10
-1549.468284016112
 20
997.785985390879
 30
0.0
 10
-1549.440015052449
 20
997.7859979939647
 30
0.0
 10
-1549.413749759708
 20
997.7860169987141
 30
0.0
 10
-1549.39241250127
 20
997.786034832097
 30
0.0
 10
-1549.378104925132
 20
997.7860605411549
 30
0.0
 10
-1549.371203625271
 20
997.7860539625522
 30
0.0
 10
-1549.369093457198
 20
997.7860519510532
 30
0.0
 11
-1549.868789036548
 21
997.7860511940362
 31
0.0
 11
-1549.84159410837
 21
997.7860190327318
 31
0.0
 11
-1549.808330568235
 21
997.7859958366203
 31
0.0
 11
-1549.769934160042
 21
997.7859800325338
 31
0.0
 11
-1549.727340627689
 21
997.7859700473041
 31
0.0
 11
-1549.681485715074
 21
997.785964307763
 31
0.0
 11
-1549.637182321277
 21
997.7859617448461
 31
0.0
 11
-1549.599098975991
 21
997.785961865356
 31
0.0
 11
-1549.567164733506
 21
997.7859638905647
 31
0.0
 11
-1549.541308648113
 21
997.785967041744
 31
0.0
 11
-1549.521459774104
 21
997.7859705401661
 31
0.0
 11
-1549.49682308208
 21
997.785976426642
 31
0.0
 11
-1549.468593223546
 21
997.7859858200642
 31
0.0
 11
-1549.439435745162
 21
997.7859996434016
 31
0.0
 11
-1549.412016193587
 21
997.7860188196217
 31
0.0
 11
-1549.389797351313
 21
997.7860413399582
 31
0.0
 11
-1549.375423961103
 21
997.7860562111337
 31
0.0
 11
-1549.369093457198
 21
997.7860519510532
 31
0.0
  0
SPLINE
  5
202
330
1F
100
AcDbEntity
  8
0
  6
Continuous
 62
     2
100
AcDbSpline
210
0.0
220
0.0
230
1.0
 70
     8
 71
     3
 72
     9
 73
     5
 74
     3
 42
0.0000000001
 43
0.0000000001
 44
0.00000001
 40
0.0
 40
0.0
 40
0.0
 40
0.0
 40
6.374043025549684
 40
12.78718177881551
 40
12.78718177881551
 40
12.78718177881551
 40
12.78718177881551
 10
-1545.841497826493
 20
997.8479774568435
 30
0.0
 10
-1545.83169655273
 20
999.9726381762111
 30
0.0
 10
-1545.81203388827
 20
1004.23499139974
 30
0.0
 10
-1545.809296201999
 20
1008.497389131007
 30
0.0
 10
-1545.807923173741
 20
1010.635103957077
 30
0.0
 11
-1545.841497826493
 21
997.8479774568435
 31
0.0
 11
-1545.81629941596
 21
1004.221970673946
 31
0.0
 11
-1545.807923173741
 21
1010.635103957077
 31
0.0
  0
SPLINE
  5
203
330
1F
100
AcDbEntity
  8
0
  6
Continuous
 62
     2
100
AcDbSpline
210
0.0
220
0.0
230
1.0
 70
     8
 71
     3
 72
    15
 73
    11
 74
     9
 42
0.0000000001
 43
0.0000000001
 44
0.00000001
 40
0.0
 40
0.0
 40
0.0
 40
0.0
 40
0.7029350000297259
 40
1.40798645472486
 40
2.10860523708416
 40
2.809757339187394
 40
3.506145203970383
 40
4.205330868242218
 40
4.90233430342277
 40
5.59740298966714
 40
5.59740298966714
 40
5.59740298966714
 40
5.59740298966714
 10
-1545.841497826493
 20
997.8479774568435
 30
0.0
 10
-1545.830064199092
 20
997.6132906667704
 30
0.0
 10
-1545.807162518983
 20
997.1432104722833
 30
0.0
 10
-1545.610094000908
 20
996.4621169362724
 30
0.0
 10
-1545.297495411296
 20
995.8294532652312
 30
0.0
 10
-1544.869226204381
 20
995.2706458794019
 30
0.0
 10
-1544.340417805836
 20
994.8062639952163
 30
0.0
 10
-1543.730467687352
 20
994.4598747363599
 30
0.0
 10
-1543.061793083287
 20
994.2376630065864
 30
0.0
 10
-1542.597051276681
 20
994.2089245786964
 30
0.0
 10
-1542.365003330322
 20
994.1945753355711
 30
0.0
 11
-1545.841497826493
 21
997.8479774568435
 31
0.0
 11
-1545.780106676171
 21
997.1477284004865
 31
0.0
 11
-1545.590259637233
 21
996.4687176085441
 31
0.0
 11
-1545.278054940762
 21
995.8415055983786
 31
0.0
 11
-1544.851337038368
 21
995.2851548977762
 31
0.0
 11
-1544.327475183269
 21
994.8263250654973
 31
0.0
 11
-1543.71993498613
 21
994.4802679864147
 31
0.0
 11
-1543.056253270567
 21
994.2673352057508
 31
0.0
 11
-1542.365003330322
 21
994.1945753355711
 31
0.0
  0
SPLINE
  5
204
330
1F
100
AcDbEntity
  8
0
  6
Continuous
 62
     2
100
AcDbSpline
210
0.0
220
0.0
230
1.0
 70
     8
 71
     3
 72
    25
 73
    21
 74
    19
 42
0.0000000001
 43
0.0000000001
 44
0.00000001
 40
0.0
 40
0.0
 40
0.0
 40
0.0
 40
0.063861494144249
 40
0.1265532741520226
 40
0.1873033347929512
 40
0.2309162875854925
 40
0.2723109400207391
 40
0.3112082743939214
 40
0.3473292730000423
 40
0.3666658421771615
 40
0.388643255968752
 40
0.411896746068512
 40
0.4350615441692309
 40
0.4567728819655185
 40
0.4722176264901288
 40
0.4834331430831895
 40
0.4911040642046693
 40
0.4959150223161257
 40
0.4985506498761677
 40
0.4996955793466979
 40
0.4996955793466979
 40
0.4996955793466979
 40
0.4996955793466979
 10
-1466.179213114655
 20
997.7860511940312
 30
0.0
 10
-1466.20050027937
 20
997.7860511938054
 30
0.0
 10
-1466.242684704087
 20
997.7860511933576
 30
0.0
 10
-1466.305119149018
 20
997.7860512490103
 30
0.0
 10
-1466.360804080166
 20
997.786051317489
 30
0.0
 10
-1466.409389968788
 20
997.7860513839914
 30
0.0
 10
-1466.450691615322
 20
997.7860514449128
 30
0.0
 10
-1466.489495943793
 20
997.7860515069877
 30
0.0
 10
-1466.520947577845
 20
997.786051561745
 30
0.0
 10
-1466.546759238371
 20
997.7860516101565
 30
0.0
 10
-1466.568281729393
 20
997.7860516531135
 30
0.0
 10
-1466.591080296723
 20
997.7860517023178
 30
0.0
 10
-1466.613790172056
 20
997.7860517566492
 30
0.0
 10
-1466.633897132196
 20
997.7860518109853
 30
0.0
 10
-1466.650020998501
 20
997.7860518633231
 30
0.0
 10
-1466.661464725914
 20
997.7860519040643
 30
0.0
 10
-1466.669363857855
 20
997.7860519399349
 30
0.0
 10
-1466.674403026787
 20
997.7860519543445
 30
0.0
 10
-1466.677266865167
 20
997.7860519730152
 30
0.0
 10
-1466.678527050844
 20
997.7860519561558
 30
0.0
 10
-1466.678908694001
 20
997.7860519510504
 30
0.0
 11
-1466.179213114655
 21
997.7860511940312
 31
0.0
 11
-1466.243074608799
 21
997.7860512030427
 31
0.0
 11
-1466.305766388807
 21
997.7860512531784
 31
0.0
 11
-1466.366516449448
 21
997.7860513261522
 31
0.0
 11
-1466.41012940224
 21
997.7860513857962
 31
0.0
 11
-1466.451524054676
 21
997.7860514470274
 31
0.0
 11
-1466.490421389049
 21
997.7860515094183
 31
0.0
 11
-1466.526542387655
 21
997.7860515725409
 31
0.0
 11
-1466.545878956832
 21
997.7860516088683
 31
0.0
 11
-1466.567856370624
 21
997.7860516528422
 31
0.0
 11
-1466.591109860723
 21
997.7860517032909
 31
0.0
 11
-1466.614274658824
 21
997.7860517590436
 31
0.0
 11
-1466.63598599662
 21
997.7860518189292
 31
0.0
 11
-1466.651430741145
 21
997.786051868836
 31
0.0
 11
-1466.662646257738
 21
997.7860519104486
 31
0.0
 11
-1466.670317178859
 21
997.7860519416215
 31
0.0
 11
-1466.67512813697
 21
997.7860519602099
 31
0.0
 11
-1466.67776376453
 21
997.7860519640676
 31
0.0
 11
-1466.678908694001
 21
997.7860519510504
 31
0.0
  0
SPLINE
  5
205
330
1F
100
AcDbEntity
  8
0
  6
Continuous
 62
     2
100
AcDbSpline
210
0.0
220
0.0
230
1.0
 70
     8
 71
     3
 72
     9
 73
     5
 74
     3
 42
0.0000000001
 43
0.0000000001
 44
0.00000001
 40
0.0
 40
0.0
 40
0.0
 40
0.0
 40
6.140900779650881
 40
12.31945123331671
 40
12.31945123331671
 40
12.31945123331671
 40
12.31945123331671
 10
-1467.208270845791
 20
1029.754793811205
 30
0.0
 10
-1467.218083083206
 20
1027.707847995568
 30
0.0
 10
-1467.237767716561
 20
1023.601406602388
 30
0.0
 10
-1467.240523697607
 20
1019.494918918621
 30
0.0
 10
-1467.241905899429
 20
1017.435400125049
 30
0.0
 11
-1467.208270845791
 21
1029.754793811205
 31
0.0
 11
-1467.233501223394
 21
1023.613944862276
 31
0.0
 11
-1467.241905899429
 21
1017.435400125049
 31
0.0
  0
SPLINE
  5
206
330
1F
100
AcDbEntity
  8
0
  6
Continuous
 62
     2
100
AcDbSpline
210
0.0
220
0.0
230
1.0
 70
     8
 71
     3
 72
    23
 73
    19
 74
    17
 42
0.0000000001
 43
0.0000000001
 44
0.00000001
 40
0.0
 40
0.0
 40
0.0
 40
0.0
 40
0.6342501285578453
 40
1.263323513879405
 40
1.882037272134342
 40
2.483094523687827
 40
3.061194885407172
 40
3.609803120955189
 40
4.123001406400206
 40
4.595992903769639
 40
5.023396503173036
 40
5.402362432703886
 40
5.729686558370575
 40
6.002106867803779
 40
6.217035928868251
 40
6.371950466259175
 40
6.444324410701936
 40
6.496111258757093
 40
6.496111258757093
 40
6.496111258757093
 40
6.496111258757093
 10
-1542.857453151211
 20
885.4624682209655
 30
0.0
 10
-1543.068869158918
 20
885.4630135879896
 30
0.0
 10
-1543.489975598983
 20
885.4640998707578
 30
0.0
 10
-1544.117319818885
 20
885.4654932643598
 30
0.0
 10
-1544.733599985483
 20
885.4667595374265
 30
0.0
 10
-1545.332889507573
 20
885.4678248292282
 30
0.0
 10
-1545.908810897067
 20
885.4686374360952
 30
0.0
 10
-1546.455446228143
 20
885.4692163716413
 30
0.0
 10
-1546.967045446584
 20
885.4695849113135
 30
0.0
 10
-1547.438243238532
 20
885.4697229801457
 30
0.0
 10
-1547.86469692887
 20
885.4696094782875
 30
0.0
 10
-1548.242594674512
 20
885.4692648976101
 30
0.0
 10
-1548.568831081962
 20
885.4687194011154
 30
0.0
 10
-1548.840387824039
 20
885.4679479467144
 30
0.0
 10
-1549.054473929745
 20
885.4669701366773
 30
0.0
 10
-1549.201875353587
 20
885.4658293336913
 30
0.0
 10
-1549.294895183539
 20
885.4647648189205
 30
0.0
 10
-1549.336274140657
 20
885.4639451973094
 30
0.0
 10
-1549.353533097546
 20
885.463603337218
 30
0.0
 11
-1542.857453151211
 21
885.4624682209655
 31
0.0
 11
-1543.49170126655
 21
885.464066271384
 31
0.0
 11
-1544.120773055796
 21
885.4654833437173
 31
0.0
 11
-1544.739485532496
 21
885.4667426413507
 31
0.0
 11
-1545.340541852272
 21
885.4678009900857
 31
0.0
 11
-1545.91864163876
 21
885.4686165159525
 31
0.0
 11
-1546.467249567341
 21
885.4691968687221
 31
0.0
 11
-1546.980447726761
 21
885.4695565229896
 31
0.0
 11
-1547.45343920772
 21
885.4696811205747
 31
0.0
 11
-1547.880842788933
 21
885.4695564236671
 31
0.0
 11
-1548.259808548656
 21
885.4691976721024
 31
0.0
 11
-1548.587132163166
 21
885.4686192022491
 31
0.0
 11
-1548.859551258463
 21
885.4678058701321
 31
0.0
 11
-1549.074477709764
 21
885.4667467095453
 31
0.0
 11
-1549.229387117455
 21
885.4654860335443
 31
0.0
 11
-1549.301755248372
 21
885.4645687212901
 31
0.0
 11
-1549.353533097546
 21
885.463603337218
 31
0.0
  0
SPLINE
  5
207
330
1F
100
AcDbEntity
  8
0
  6
Continuous
 62
     2
100
AcDbSpline
210
0.0
220
0.0
230
1.0
 70
     8
 71
     3
 72
    20
 73
    16
 74
    14
 42
0.0000000001
 43
0.0000000001
 44
0.00000001
 40
0.0
 40
0.0
 40
0.0
 40
0.0
 40
0.0023021671911465
 40
0.0091867841960104
 40
0.0217235218196644
 40
0.0364084235799676
 40
0.0710531427399677
 40
0.1077978348523501
 40
0.1403304234940327
 40
0.165236444010976
 40
0.1994300614675062
 40
0.2431492573347881
 40
0.2966320131482271
 40
0.3875280042077341
 40
0.4825505977268119
 40
0.4825505977268119
 40
0.4825505977268119
 40
0.4825505977268119
 10
-1542.857454016071
 20
885.9450184306736
 30
0.0
 10
-1542.857466396408
 20
885.9442511376543
 30
0.0
 10
-1542.857515800065
 20
885.9411892595197
 30
0.0
 10
-1542.857534689219
 20
885.933947899523
 30
0.0
 10
-1542.85753552556
 20
885.9225792579475
 30
0.0
 10
-1542.857544369984
 20
885.9019570869002
 30
0.0
 10
-1542.857543947517
 20
885.873265679428
 30
0.0
 10
-1542.857541168415
 20
885.8386250025269
 30
0.0
 10
-1542.857535327392
 20
885.8072305716611
 30
0.0
 10
-1542.857528279708
 20
885.7766864964327
 30
0.0
 10
-1542.857518881593
 20
885.7424135532762
 30
0.0
 10
-1542.85750484354
 20
885.6986150323573
 30
0.0
 10
-1542.857482434991
 20
885.6359157223841
 30
0.0
 10
-1542.857446075483
 20
885.556115281821
 30
0.0
 10
-1542.857450757991
 20
885.4941424193089
 30
0.0
 10
-1542.857453151211
 20
885.4624682209655
 30
0.0
 11
-1542.857454016071
 21
885.9450184306736
 31
0.0
 11
-1542.857488556264
 21
885.9427165226061
 31
0.0
 11
-1542.857527712319
 21
885.9358320169516
 31
0.0
 11
-1542.857536156713
 21
885.9232952821719
 31
0.0
 11
-1542.857540870113
 21
885.908610381168
 31
0.0
 11
-1542.857543590733
 21
885.8739656621149
 31
0.0
 11
-1542.857540368278
 21
885.8372209701438
 31
0.0
 11
-1542.857534579952
 21
885.804688382017
 31
0.0
 11
-1542.857528841936
 21
885.7797823621611
 31
0.0
 11
-1542.857519520671
 21
885.745588745975
 31
0.0
 11
-1542.857505644907
 21
885.7018695523097
 31
0.0
 11
-1542.857486243391
 21
885.6483868000154
 31
0.0
 11
-1542.857454570746
 21
885.557490814474
 31
0.0
 11
-1542.857453151211
 21
885.4624682209655
 31
0.0
  0
SPLINE
  5
208
330
1F
100
AcDbEntity
  8
0
  6
Continuous
 62
     2
100
AcDbSpline
210
0.0
220
0.0
230
1.0
 70
     8
 71
     3
 72
    19
 73
    15
 74
    13
 42
0.0000000001
 43
0.0000000001
 44
0.00000001
 40
0.0
 40
0.0
 40
0.0
 40
0.0
 40
0.0068423172660594
 40
0.017654945582377
 40
0.0364081960072185
 40
0.0564964562478579
 40
0.0900972547658082
 40
0.1403303396280098
 40
0.198798713123171
 40
0.2528596961046914
 40
0.2966319344462464
 40
0.3704204978694154
 40
0.4338923870225957
 40
0.4825503059550827
 40
0.4825503059550827
 40
0.4825503059550827
 40
0.4825503059550827
 10
-1473.159342717023
 20
885.9450184306578
 30
0.0
 10
-1473.159342896097
 20
885.9427376582429
 30
0.0
 10
-1473.159343358152
 20
885.9368526763999
 30
0.0
 10
-1473.15934388544
 20
885.9247166110732
 30
0.0
 10
-1473.159344348785
 20
885.9081652314195
 30
0.0
 10
-1473.159344878841
 20
885.8840177950308
 30
0.0
 10
-1473.159345520549
 20
885.8493770804962
 30
0.0
 10
-1473.159346251477
 20
885.8019429948769
 30
0.0
 10
-1473.159346967509
 20
885.7476888477686
 30
0.0
 10
-1473.159347573304
 20
885.6955883161659
 30
0.0
 10
-1473.159348177842
 20
885.6383810545873
 30
0.0
 10
-1473.159348748135
 20
885.5780368242837
 30
0.0
 10
-1473.159349270122
 20
885.5160640337829
 30
0.0
 10
-1473.15934954697
 20
885.4786874310889
 30
0.0
 10
-1473.159349667106
 20
885.4624681247784
 30
0.0
 11
-1473.159342717023
 21
885.9450184306578
 31
0.0
 11
-1473.159343223247
 21
885.9381761134105
 31
0.0
 11
-1473.159343750069
 21
885.927363485107
 31
0.0
 11
-1473.159344318087
 21
885.9086102346907
 31
0.0
 11
-1473.159344771386
 21
885.8885219744552
 31
0.0
 11
-1473.159345403862
 21
885.8549211759432
 31
0.0
 11
-1473.159346192064
 21
885.8046880910872
 31
0.0
 11
-1473.159346970997
 21
885.7462197175972
 31
0.0
 11
-1473.159347602627
 21
885.6921587346194
 31
0.0
 11
-1473.159348066042
 21
885.6483864962803
 31
0.0
 11
-1473.159348767044
 21
885.5745979328605
 31
0.0
 11
-1473.159349299548
 21
885.5111260437095
 31
0.0
 11
-1473.159349667106
 21
885.4624681247784
 31
0.0
  0
SPLINE
  5
209
330
1F
100
AcDbEntity
  8
0
  6
Continuous
 62
     2
100
AcDbSpline
210
0.0
220
0.0
230
1.0
 70
     8
 71
     3
 72
    15
 73
    11
 74
     9
 42
0.0000000001
 43
0.0000000001
 44
0.00000001
 40
0.0
 40
0.0
 40
0.0
 40
0.0
 40
0.6908944575707127
 40
1.355472985197397
 40
1.966222932900218
 40
2.497087661820033
 40
2.937076340144241
 40
3.26940059315918
 40
3.491856563868052
 40
3.620903798564411
 40
3.620903798564411
 40
3.620903798564411
 40
3.620903798564411
 10
-1542.350324701243
 20
868.1057029793224
 30
0.0
 10
-1542.580648354476
 20
868.1028295252589
 30
0.0
 10
-1543.032522712981
 20
868.0971920659994
 30
0.0
 10
-1543.686680825999
 20
868.0540557690202
 30
0.0
 10
-1544.285807774465
 20
867.9881959901484
 30
0.0
 10
-1544.804763554956
 20
867.9014164459588
 30
0.0
 10
-1545.232286354361
 20
867.8043614165025
 30
0.0
 10
-1545.536732887471
 20
867.6922097791348
 30
0.0
 10
-1545.761203867056
 20
867.595851985345
 30
0.0
 10
-1545.808542842989
 20
867.4852823592839
 30
0.0
 10
-1545.825922382759
 20
867.444688975596
 30
0.0
 11
-1542.350324701243
 21
868.1057029793224
 31
0.0
 11
-1543.041058869824
 21
868.0908214519599
 31
0.0
 11
-1543.704246341246
 21
868.0478447474391
 31
0.0
 11
-1544.311134246259
 21
867.9792694649545
 31
0.0
 11
-1544.834564897322
 21
867.8907386006233
 31
0.0
 11
-1545.262088776295
 21
867.7867512458106
 31
0.0
 11
-1545.574778968746
 21
867.6742156839342
 31
0.0
 11
-1545.764612467021
 21
867.5582419721
 31
0.0
 11
-1545.825922382759
 21
867.444688975596
 31
0.0
  0
SPLINE
  5
20A
330
1F
100
AcDbEntity
  8
0
  6
Continuous
 62
     2
100
AcDbSpline
210
0.0
220
0.0
230
1.0
 70
     8
 71
     3
 72
     9
 73
     5
 74
     3
 42
0.0000000001
 43
0.0000000001
 44
0.00000001
 40
0.0
 40
0.0
 40
0.0
 40
0.0
 40
0.4177870139385782
 40
1.000235011599895
 40
1.000235011599895
 40
1.000235011599895
 40
1.000235011599895
 10
-1545.792323081771
 20
866.4450184474366
 30
0.0
 10
-1545.796995946811
 20
866.5842023657698
 30
0.0
 10
-1545.808183377394
 20
866.9174262897402
 30
0.0
 10
-1545.819394197333
 20
867.2506494276759
 30
0.0
 10
-1545.825922382759
 20
867.444688975596
 30
0.0
 11
-1545.792323081771
 21
866.4450184474366
 31
0.0
 11
-1545.80634575749
 21
866.8625700653013
 31
0.0
 11
-1545.825922382759
 21
867.444688975596
 31
0.0
  0
SPLINE
  5
20B
330
1F
100
AcDbEntity
  8
0
  6
Continuous
 62
     2
100
AcDbSpline
210
0.0
220
0.0
230
1.0
 70
     8
 71
     3
 72
    15
 73
    11
 74
     9
 42
0.0000000001
 43
0.0000000001
 44
0.00000001
 40
0.0
 40
0.0
 40
0.0
 40
0.0
 40
0.5315683139356265
 40
1.093843661838586
 40
1.67935084449807
 40
2.277927414881584
 40
2.8779535429954
 40
3.467458584111535
 40
4.035404671711377
 40
4.573225001632903
 40
4.573225001632903
 40
4.573225001632903
 40
4.573225001632903
 10
-1548.824131159632
 20
870.303515354649
 30
0.0
 10
-1548.808469238214
 20
870.1265448573606
 30
0.0
 10
-1548.776240655309
 20
869.7623808323116
 30
0.0
 10
-1548.597595776006
 20
869.2264584286298
 30
0.0
 10
-1548.313511262043
 20
868.7148276009375
 30
0.0
 10
-1547.924047518884
 20
868.2597562803638
 30
0.0
 10
-1547.449828824686
 20
867.8917483076243
 30
0.0
 10
-1546.922442212329
 20
867.6297933891047
 30
0.0
 10
-1546.374459711358
 20
867.4727399622957
 30
0.0
 10
-1546.005416727977
 20
867.4538679197224
 30
0.0
 10
-1545.825922382759
 20
867.444688975596
 30
0.0
 11
-1548.824131159632
 21
870.303515354649
 31
0.0
 11
-1548.757276816628
 21
869.7761678703449
 31
0.0
 11
-1548.584560782877
 21
869.2410765337072
 31
0.0
 11
-1548.299533082763
 21
868.7296296927615
 31
0.0
 11
-1547.9103409657
 21
868.274851277895
 31
0.0
 11
-1547.43648317863
 21
867.906761408363
 31
0.0
 11
-1546.909019108389
 21
867.6435165639568
 31
0.0
 11
-1546.361658178885
 21
867.4919950431325
 31
0.0
 11
-1545.825922382759
 21
867.444688975596
 31
0.0
  0
SPLINE
  5
20C
330
1F
100
AcDbEntity
  8
0
  6
Continuous
 62
     2
100
AcDbSpline
210
0.0
220
0.0
230
1.0
 70
     8
 71
     3
 72
    23
 73
    19
 74
    17
 42
0.0000000001
 43
0.0000000001
 44
0.00000001
 40
0.0
 40
0.0
 40
0.0
 40
0.0
 40
0.0516703580761246
 40
0.1238199033435586
 40
0.2782214864420543
 40
0.4926838153484337
 40
0.7656885203059018
 40
1.094247953500638
 40
1.474932702128876
 40
1.903819388960309
 40
2.375760514561167
 40
2.887069566703935
 40
3.433522302969458
 40
4.009855037608449
 40
4.61141973359418
 40
5.231098693821062
 40
5.861033905759805
 40
6.496091727074875
 40
6.496091727074875
 40
6.496091727074875
 40
6.496091727074875
 10
-1466.663308692786
 20
885.4624682210621
 30
0.0
 10
-1466.680524404966
 20
885.4629908340451
 30
0.0
 10
-1466.721779157159
 20
885.4642431940341
 30
0.0
 10
-1466.814511244558
 20
885.4656712328274
 30
0.0
 10
-1466.961509654762
 20
885.4669810189516
 30
0.0
 10
-1467.175464461609
 20
885.4679389013363
 30
0.0
 10
-1467.447472012553
 20
885.4687195251687
 30
0.0
 10
-1467.774887990461
 20
885.4692638312199
 30
0.0
 10
-1468.154264786403
 20
885.4696097887764
 30
0.0
 10
-1468.581435661843
 20
885.4697228961043
 30
0.0
 10
-1469.052147945749
 20
885.4695849068371
 30
0.0
 10
-1469.562048796803
 20
885.4692171059702
 30
0.0
 10
-1470.106746675115
 20
885.4686398542514
 30
0.0
 10
-1470.681529504435
 20
885.4678283864938
 30
0.0
 10
-1471.280720699667
 20
885.4667632402928
 30
0.0
 10
-1471.897779023568
 20
885.4654960098279
 30
0.0
 10
-1472.526001483904
 20
885.4641016086202
 30
0.0
 10
-1472.947664429108
 20
885.4630140873708
 30
0.0
 10
-1473.159349667106
 20
885.4624681247784
 30
0.0
 11
-1466.663308692786
 21
885.4624682210621
 31
0.0
 11
-1466.714958407835
 21
885.4639286453303
 31
0.0
 11
-1466.78709676219
 21
885.4651993590179
 31
0.0
 11
-1466.941490983101
 21
885.466707143029
 31
0.0
 11
-1467.155950522453
 21
885.4678009898107
 31
0.0
 11
-1467.428954009329
 21
885.4686165157067
 31
0.0
 11
-1467.757512929969
 21
885.4691968685311
 31
0.0
 11
-1468.138197508704
 21
885.4695565228811
 31
0.0
 11
-1468.567084177437
 21
885.4696811205752
 31
0.0
 11
-1469.039025286564
 21
885.4695564237995
 31
0.0
 11
-1469.550334212851
 21
885.4691976723896
 31
0.0
 11
-1470.096786642935
 21
885.4686192027025
 31
0.0
 11
-1470.673118803679
 21
885.467805870717
 31
0.0
 11
-1471.274682567244
 21
885.4667467100718
 31
0.0
 11
-1471.894360245109
 21
885.4654860339323
 31
0.0
 11
-1472.524293860554
 21
885.4640678054141
 31
0.0
 11
-1473.159349667106
 21
885.4624681247784
 31
0.0
  0
SPLINE
  5
20D
330
1F
100
AcDbEntity
  8
0
  6
Continuous
 62
     2
100
AcDbSpline
210
0.0
220
0.0
230
1.0
 70
     8
 71
     3
 72
    15
 73
    11
 74
     9
 42
0.0000000001
 43
0.0000000001
 44
0.00000001
 40
0.0
 40
0.0
 40
0.0
 40
0.0
 40
0.1585867437842437
 40
0.410026109677153
 40
0.680501297763419
 40
1.001871688887979
 40
1.421188640521029
 40
1.88538050588412
 40
2.352975434628923
 40
2.834505475263575
 40
2.834505475263575
 40
2.834505475263575
 40
2.834505475263575
 10
-1542.350324701243
 20
868.1057029793224
 30
0.0
 10
-1542.350324663095
 20
868.1585652272503
 30
0.0
 10
-1542.350324564466
 20
868.2952405971427
 30
0.0
 10
-1542.350324567864
 20
868.5220743630641
 30
0.0
 10
-1542.350324551531
 20
868.803169344765
 30
0.0
 10
-1542.350324554025
 20
869.1402235217129
 30
0.0
 10
-1542.350324552912
 20
869.54184992442
 30
0.0
 10
-1542.35032456262
 20
869.9922178396671
 30
0.0
 10
-1542.350324590905
 20
870.4633234512478
 30
0.0
 10
-1542.350324597385
 20
870.779698441041
 30
0.0
 10
-1542.350324600673
 20
870.9402084545859
 30
0.0
 11
-1542.350324701243
 21
868.1057029793224
 31
0.0
 11
-1542.350324601862
 21
868.2642897231066
 31
0.0
 11
-1542.350324564818
 21
868.5157290889995
 31
0.0
 11
-1542.350324555216
 21
868.7862042770857
 31
0.0
 11
-1542.350324553311
 21
869.1075746682103
 31
0.0
 11
-1542.350324554568
 21
869.5268916198434
 31
0.0
 11
-1542.350324565562
 21
869.9910834852064
 31
0.0
 11
-1542.350324587588
 21
870.4586784139512
 31
0.0
 11
-1542.350324600673
 21
870.9402084545859
 31
0.0
  0
SPLINE
  5
20E
330
1F
100
AcDbEntity
  8
0
  6
Continuous
 62
     2
100
AcDbSpline
210
0.0
220
0.0
230
1.0
 70
     8
 71
     3
 72
    15
 73
    11
 74
     9
 42
0.0000000001
 43
0.0000000001
 44
0.00000001
 40
0.0
 40
0.0
 40
0.0
 40
0.0
 40
0.1318099579217199
 40
0.344213758450195
 40
0.6368733403241393
 40
1.00187511494465
 40
1.424652226241066
 40
1.885386579015037
 40
2.362255658843506
 40
2.834514130455516
 40
2.834514130455516
 40
2.834514130455516
 40
2.834514130455516
 10
-1473.667399068953
 20
868.1057021285013
 30
0.0
 10
-1473.667312836754
 20
868.1496387039185
 30
0.0
 10
-1473.667087646567
 20
868.264376421738
 30
0.0
 10
-1473.667075455662
 20
868.4766676266318
 30
0.0
 10
-1473.667070356272
 20
868.7666893069223
 30
0.0
 10
-1473.667123591541
 20
869.126835474272
 30
0.0
 10
-1473.667139343579
 20
869.543006550411
 30
0.0
 10
-1473.667073175453
 20
869.996466729931
 30
0.0
 10
-1473.666886665701
 20
870.4664206750642
 30
0.0
 10
-1473.666613045262
 20
870.7827964110857
 30
0.0
 10
-1473.66647689963
 20
870.9402158446715
 30
0.0
 11
-1473.667399068953
 21
868.1057021285013
 31
0.0
 11
-1473.667172427135
 21
868.2375118915722
 31
0.0
 11
-1473.667078178232
 21
868.4499156711904
 31
0.0
 11
-1473.667077960415
 21
868.7425752530643
 31
0.0
 11
-1473.667114545833
 21
869.1075770258512
 31
0.0
 11
-1473.667126472161
 21
869.5303541369794
 31
0.0
 11
-1473.667055021644
 21
869.9910884842132
 31
0.0
 11
-1473.666848680036
 21
870.4679575193995
 31
0.0
 11
-1473.66647689963
 21
870.9402158446715
 31
0.0
  0
SPLINE
  5
20F
330
1F
100
AcDbEntity
  8
0
  6
Continuous
 62
     2
100
AcDbSpline
210
0.0
220
0.0
230
1.0
 70
     8
 71
     3
 72
    23
 73
    19
 74
    17
 42
0.0000000001
 43
0.0000000001
 44
0.00000001
 40
0.0
 40
0.0
 40
0.0
 40
0.0
 40
0.6432613647013515
 40
1.281240933623022
 40
1.908711615240326
 40
2.516593422947434
 40
3.095031191832851
 40
3.642300325903233
 40
4.154102816259896
 40
4.625417254937904
 40
5.04986724302369
 40
5.425919301821688
 40
5.751073827804206
 40
6.022111380498257
 40
6.235774709239323
 40
6.392353326211166
 40
6.492765282526229
 40
6.54584619061532
 40
6.54584619061532
 40
6.54584619061532
 40
6.54584619061532
 10
-1542.350324600673
 20
870.9402084545859
 30
0.0
 10
-1542.564707939865
 20
870.9361346959488
 30
0.0
 10
-1542.991714324412
 20
870.9280206281594
 30
0.0
 10
-1543.627661985063
 20
870.9083676370959
 30
0.0
 10
-1544.251625125409
 20
870.8836821672037
 30
0.0
 10
-1544.855492808839
 20
870.853770037775
 30
0.0
 10
-1545.432323230292
 20
870.8190499169186
 30
0.0
 10
-1545.976785489665
 20
870.7801854013625
 30
0.0
 10
-1546.485168690532
 20
870.7378304986286
 30
0.0
 10
-1546.952191028564
 20
870.6927257855968
 30
0.0
 10
-1547.373544560806
 20
870.6455416400015
 30
0.0
 10
-1547.745531574263
 20
870.5968844543754
 30
0.0
 10
-1548.066171647926
 20
870.5477884620811
 30
0.0
 10
-1548.330836764896
 20
870.4980734426721
 30
0.0
 10
-1548.541421271205
 20
870.4515683719833
 30
0.0
 10
-1548.686449225546
 20
870.4018414511104
 30
0.0
 10
-1548.791153959769
 20
870.3658755633784
 30
0.0
 10
-1548.81565738441
 20
870.319539346795
 30
0.0
 10
-1548.824131159632
 20
870.303515354649
 30
0.0
 11
-1542.350324600673
 21
870.9402084545859
 31
0.0
 11
-1542.993444261299
 21
870.9267071422935
 31
0.0
 11
-1543.631129580966
 21
870.9073328437953
 31
0.0
 11
-1544.258103425216
 21
870.8823677698606
 31
0.0
 11
-1544.865235344742
 21
870.8521829320581
 31
0.0
 11
-1545.442621798791
 21
870.8173241432864
 31
0.0
 11
-1545.988492719563
 21
870.7782288371516
 31
0.0
 11
-1546.498512293179
 21
870.7355460108271
 31
0.0
 11
-1546.967617997828
 21
870.689970381679
 31
0.0
 11
-1547.389390154564
 21
870.6423674386166
 31
0.0
 11
-1547.76221647408
 21
870.5932178058351
 31
0.0
 11
-1548.083489144716
 21
870.5431245241584
 31
0.0
 11
-1548.349825888686
 21
870.4928642636914
 31
0.0
 11
-1548.557671146982
 21
870.4433428879794
 31
0.0
 11
-1548.70657441432
 21
870.3949209893279
 31
0.0
 11
-1548.795441644078
 21
870.3481751184281
 31
0.0
 11
-1548.824131159632
 21
870.303515354649
 31
0.0
  0
SPLINE
  5
210
330
1F
100
AcDbEntity
  8
0
  6
Continuous
 62
     2
100
AcDbSpline
210
0.0
220
0.0
230
1.0
 70
     8
 71
     3
 72
     9
 73
     5
 74
     3
 42
0.0000000001
 43
0.0000000001
 44
0.00000001
 40
0.0
 40
0.0
 40
0.0
 40
0.0
 40
0.5825266718909072
 40
1.000368264404542
 40
1.000368264404542
 40
1.000368264404542
 40
1.000368264404542
 10
-1470.190904305301
 20
867.4448259039405
 30
0.0
 10
-1470.197432764335
 20
867.2507601254708
 30
0.0
 10
-1470.20864403336
 20
866.9174925596135
 30
0.0
 10
-1470.219813562224
 20
866.584223592359
 30
0.0
 10
-1470.22447893786
 20
866.4450212196249
 30
0.0
 11
-1470.190904305301
 21
867.4448259039405
 31
0.0
 11
-1470.210475528834
 21
866.862628093335
 31
0.0
 11
-1470.22447893786
 21
866.4450212196249
 31
0.0
  0
SPLINE
  5
211
330
1F
100
AcDbEntity
  8
0
  6
Continuous
 62
     2
100
AcDbSpline
210
0.0
220
0.0
230
1.0
 70
     8
 71
     3
 72
    15
 73
    11
 74
     9
 42
0.0000000001
 43
0.0000000001
 44
0.00000001
 40
0.0
 40
0.0
 40
0.0
 40
0.0
 40
0.1290741121711702
 40
0.3515341763507613
 40
0.6833424977578395
 40
1.122508916573511
 40
1.65381568554873
 40
2.265222379235191
 40
2.930296496220214
 40
3.621707208454351
 40
3.621707208454351
 40
3.621707208454351
 40
3.621707208454351
 10
-1470.190904305301
 20
867.4448259039405
 30
0.0
 10
-1470.208313915862
 20
867.4854139504836
 30
0.0
 10
-1470.255729102427
 20
867.595955756824
 30
0.0
 10
-1470.480008588539
 20
867.6922493543631
 30
0.0
 10
-1470.784067872675
 20
867.8042497511051
 30
0.0
 10
-1471.211277719181
 20
867.901268891538
 30
0.0
 10
-1471.730323441659
 20
867.9880855679986
 30
0.0
 10
-1472.329978380949
 20
868.05400750897
 30
0.0
 10
-1472.984691754462
 20
868.0971805490448
 30
0.0
 10
-1473.436903352251
 20
868.1028250719316
 30
0.0
 10
-1473.667399068953
 20
868.1057021285013
 30
0.0
 11
-1470.190904305301
 21
867.4448259039405
 31
0.0
 11
-1470.252295493392
 21
867.5583655378025
 31
0.0
 11
-1470.442142587871
 21
867.6743248447718
 31
0.0
 11
-1470.754347502478
 21
867.7866852179025
 31
0.0
 11
-1471.181065704966
 21
867.8905058279997
 31
0.0
 11
-1471.704927187178
 21
867.9791400776629
 31
0.0
 11
-1472.312466870037
 21
868.0477963143537
 31
0.0
 11
-1472.976148844201
 21
868.0908058278683
 31
0.0
 11
-1473.667399068953
 21
868.1057021285013
 31
0.0
  0
SPLINE
  5
212
330
1F
100
AcDbEntity
  8
0
  6
Continuous
 62
     2
100
AcDbSpline
210
0.0
220
0.0
230
1.0
 70
     8
 71
     3
 72
    15
 73
    11
 74
     9
 42
0.0000000001
 43
0.0000000001
 44
0.00000001
 40
0.0
 40
0.0
 40
0.0
 40
0.0
 40
0.537837875055708
 40
1.105804716607802
 40
1.69531335143698
 40
2.295313512184394
 40
2.89383528287804
 40
3.479273194189747
 40
4.041486356745061
 40
4.573019734204084
 40
4.573019734204084
 40
4.573019734204084
 40
4.573019734204084
 10
-1470.190904305301
 20
867.4448259039405
 30
0.0
 10
-1470.011406983569
 20
867.4540479392958
 30
0.0
 10
-1469.642357137517
 20
867.4730086162311
 30
0.0
 10
-1469.094379429021
 20
867.6301065700795
 30
0.0
 10
-1468.566991646827
 20
867.8920531634836
 30
0.0
 10
-1468.092767422429
 20
868.2600087535208
 30
0.0
 10
-1467.703295293397
 20
868.7150069339168
 30
0.0
 10
-1467.419204192585
 20
869.2265639085341
 30
0.0
 10
-1467.240558138401
 20
869.7624286166354
 30
0.0
 10
-1467.208331959982
 20
870.126560546837
 30
0.0
 10
-1467.192670845792
 20
870.3035195292152
 30
0.0
 11
-1470.190904305301
 21
867.4448259039405
 31
0.0
 11
-1469.655161092398
 21
867.4922473091547
 31
0.0
 11
-1469.107793812463
 21
867.6438236726134
 31
0.0
 11
-1468.580324775369
 21
867.907066612587
 31
0.0
 11
-1468.106463478087
 21
868.2751096315872
 31
0.0
 11
-1467.717269279632
 21
868.7298141355049
 31
0.0
 11
-1467.432240746455
 21
869.2411812084339
 31
0.0
 11
-1467.259524715261
 21
869.7762072009979
 31
0.0
 11
-1467.192670845792
 21
870.3035195292152
 31
0.0
  0
SPLINE
  5
213
330
1F
100
AcDbEntity
  8
0
  6
Continuous
 62
     2
100
AcDbSpline
210
0.0
220
0.0
230
1.0
 70
     8
 71
     3
 72
    23
 73
    19
 74
    17
 42
0.0000000001
 43
0.0000000001
 44
0.00000001
 40
0.0
 40
0.0
 40
0.0
 40
0.0
 40
0.0531529323710554
 40
0.1538014635500995
 40
0.3106233096159826
 40
0.524456488275352
 40
0.7949856012132102
 40
1.119187248837167
 40
1.493861310843367
 40
1.917045700643441
 40
2.388935421322739
 40
2.901943757035276
 40
3.450664542447999
 40
4.030331163255564
 40
4.638071435787483
 40
5.265134715743302
 40
5.90280784247861
 40
6.545810022366927
 40
6.545810022366927
 40
6.545810022366927
 40
6.545810022366927
 10
-1467.192670845792
 20
870.3035195292152
 30
0.0
 10
-1467.201183758137
 20
870.3195483843372
 30
0.0
 10
-1467.225816423154
 20
870.3659289181443
 30
0.0
 10
-1467.330697601894
 20
870.4019100221691
 30
0.0
 10
-1467.475927378966
 20
870.4517424522079
 30
0.0
 10
-1467.686471779557
 20
870.4982589836652
 30
0.0
 10
-1467.950720104991
 20
870.5478832218917
 30
0.0
 10
-1468.27042367498
 20
870.5968274752177
 30
0.0
 10
-1468.641220690884
 20
870.6453437562277
 30
0.0
 10
-1469.061888922892
 20
870.6924513671293
 30
0.0
 10
-1469.529083714582
 20
870.7375587346324
 30
0.0
 10
-1470.038542128669
 20
870.7799874728713
 30
0.0
 10
-1470.584297926606
 20
870.8189247573334
 30
0.0
 10
-1471.161971845672
 20
870.8537137697159
 30
0.0
 10
-1471.766061746002
 20
870.8837188227112
 30
0.0
 10
-1472.389736881208
 20
870.9084708045507
 30
0.0
 10
-1473.025359403134
 20
870.9281609379482
 30
0.0
 10
-1473.452179050484
 20
870.9361864107589
 30
0.0
 10
-1473.66647689963
 20
870.9402158446715
 30
0.0
 11
-1467.192670845792
 21
870.3035195292152
 31
0.0
 11
-1467.221469935221
 21
870.3481944289656
 31
0.0
 11
-1467.310570048694
 21
870.3950057161476
 31
0.0
 11
-1467.45970144495
 21
870.4435126028143
 31
0.0
 11
-1467.667707740231
 21
870.493090918834
 31
0.0
 11
-1467.933546208398
 21
870.5432497644094
 31
0.0
 11
-1468.253878543884
 21
870.5931887588358
 31
0.0
 11
-1468.625337647951
 21
870.6421661694018
 31
0.0
 11
-1469.045851766663
 21
870.6896309324773
 31
0.0
 11
-1469.515530877786
 21
870.7352537453859
 31
0.0
 11
-1470.026753370156
 21
870.7780219088485
 31
0.0
 11
-1470.574073180343
 21
870.8172076935297
 31
0.0
 11
-1471.152685059643
 21
870.8521602958759
 31
0.0
 11
-1471.759672193622
 21
870.8824069161942
 31
0.0
 11
-1472.386236012319
 21
870.9074296692178
 31
0.0
 11
-1473.023614304554
 21
870.9268185616236
 31
0.0
 11
-1473.66647689963
 21
870.9402158446715
 31
0.0
  0
SPLINE
  5
214
330
1F
100
AcDbEntity
  8
0
  6
Continuous
 62
     2
100
AcDbSpline
210
0.0
220
0.0
230
1.0
 70
     8
 71
     3
 72
    23
 73
    19
 74
    17
 42
0.0000000001
 43
0.0000000001
 44
0.00000001
 40
0.0
 40
0.0
 40
0.0
 40
0.0
 40
0.0023021676352993
 40
0.0091867854603679
 40
0.0194332658721492
 40
0.0364084262599972
 40
0.0503296738100905
 40
0.0714129926513529
 40
0.1009745288432846
 40
0.1403304286173344
 40
0.1652364495124606
 40
0.1994300672054329
 40
0.2431492630318096
 40
0.2966320183895536
 40
0.3289218960946204
 40
0.3712256720870594
 40
0.422712274309953
 40
0.4825506318428278
 40
0.4825506318428278
 40
0.4825506318428278
 40
0.4825506318428278
 10
-1314.201402105555
 20
997.786051194032
 30
0.0
 10
-1314.200634812436
 20
997.7860388167387
 30
0.0
 10
-1314.197572934074
 20
997.7859894252274
 30
0.0
 10
-1314.191095007709
 20
997.785972254527
 30
0.0
 10
-1314.179726354385
 20
997.7859700651202
 30
0.0
 10
-1314.166012015688
 20
997.7859636629207
 30
0.0
 10
-1314.148685452373
 20
997.7859618168366
 30
0.0
 10
-1314.127163413221
 20
997.785961128729
 30
0.0
 10
-1314.097163163849
 20
997.7859637878025
 30
0.0
 10
-1314.065888677914
 20
997.7859692430353
 30
0.0
 10
-1314.033070166147
 20
997.785976834194
 30
0.0
 10
-1313.998797222569
 20
997.7859862260559
 30
0.0
 10
-1313.954998701824
 20
997.7860001495599
 30
0.0
 10
-1313.911834761752
 20
997.7860159819008
 30
0.0
 10
-1313.869142628611
 20
997.7860325881276
 30
0.0
 10
-1313.827115878383
 20
997.786044904329
 30
0.0
 10
-1313.775906300285
 20
997.7860538898572
 30
0.0
 10
-1313.73879798029
 20
997.7860526288525
 30
0.0
 10
-1313.718851861072
 20
997.786051951049
 30
0.0
 11
-1314.201402105555
 21
997.786051194032
 31
0.0
 11
-1314.199100197039
 21
997.7860166541024
 31
0.0
 11
-1314.192215690599
 21
997.7859774920167
 31
0.0
 11
-1314.181969212822
 21
997.7859701444825
 31
0.0
 11
-1314.164994053437
 21
997.785964307759
 31
0.0
 11
-1314.151072806045
 21
997.7859622088263
 31
0.0
 11
-1314.129989487214
 21
997.785961571939
 31
0.0
 11
-1314.10042795111
 21
997.7859638610626
 31
0.0
 11
-1314.061072051903
 21
997.785970540162
 31
0.0
 11
-1314.036166031666
 21
997.7859762675755
 31
0.0
 11
-1314.00197241524
 21
997.7859855753874
 31
0.0
 11
-1313.958253221611
 21
997.7859994354505
 31
0.0
 11
-1313.904770469766
 21
997.7860188196177
 31
0.0
 11
-1313.872480594299
 21
997.7860308428293
 31
0.0
 11
-1313.830176820129
 21
997.7860432593883
 31
0.0
 11
-1313.778690218604
 21
997.7860517389202
 31
0.0
 11
-1313.718851861072
 21
997.786051951049
 31
0.0
  0
SPLINE
  5
215
330
1F
100
AcDbEntity
  8
0
  6
Continuous
 62
     2
100
AcDbSpline
210
0.0
220
0.0
230
1.0
 70
     8
 71
     3
 72
    37
 73
    33
 74
    31
 42
0.0000000001
 43
0.0000000001
 44
0.00000001
 40
0.0
 40
0.0
 40
0.0
 40
0.0
 40
0.2107233787145041
 40
0.425476333315177
 40
0.6424170851165487
 40
0.8597038619166703
 40
1.075494903167267
 40
1.227458615806182
 40
1.376657113525518
 40
1.522319160579272
 40
1.663673523074328
 40
1.799948970903969
 40
1.9303742802239
 40
2.054178236825731
 40
2.156773766391733
 40
2.25332133492682
 40
2.343619094719896
 40
2.427465204876192
 40
2.504657835199014
 40
2.574995172160616
 40
2.638275428543626
 40
2.694296859926782
 40
2.743329500296562
 40
2.78529288828375
 40
2.820299149752908
 40
2.848460692144058
 40
2.869964813484547
 40
2.885022588433996
 40
2.890210615180785
 40
2.893884407854695
 40
2.895378826723005
 40
2.896873245591634
 40
2.896873245591634
 40
2.896873245591634
 40
2.896873245591634
 10
-1298.559897640796
 20
1029.754793884402
 30
0.0
 10
-1298.490493176919
 20
1029.765602980888
 30
0.0
 10
-1298.350357056351
 20
1029.787427871736
 30
0.0
 10
-1298.138796384155
 20
1029.82055815315
 30
0.0
 10
-1297.925094591809
 20
1029.854156451198
 30
0.0
 10
-1297.71107410227
 20
1029.887955336564
 30
0.0
 10
-1297.518468856325
 20
1029.918510622607
 30
0.0
 10
-1297.348297159377
 20
1029.945621572826
 30
0.0
 10
-1297.201223770588
 20
1029.969136823677
 30
0.0
 10
-1297.057655643865
 20
1029.992175930083
 30
0.0
 10
-1296.918354198737
 20
1030.01461593811
 30
0.0
 10
-1296.784080838544
 20
1030.036333795066
 30
0.0
 10
-1296.65559696487
 20
1030.057206439456
 30
0.0
 10
-1296.538209097645
 20
1030.076368791694
 30
0.0
 10
-1296.431980522758
 20
1030.093798748442
 30
0.0
 10
-1296.336786155538
 20
1030.109498439821
 30
0.0
 10
-1296.247771476675
 20
1030.124260849505
 30
0.0
 10
-1296.165135162348
 20
1030.138049800518
 30
0.0
 10
-1296.089075882691
 20
1030.150829063026
 30
0.0
 10
-1296.019792281342
 20
1030.162562353556
 30
0.0
 10
-1295.957483011735
 20
1030.173213199743
 30
0.0
 10
-1295.902191630783
 20
1030.182771914862
 30
0.0
 10
-1295.853922488734
 20
1030.191236374812
 30
0.0
 10
-1295.812573337444
 20
1030.198609650899
 30
0.0
 10
-1295.778101616235
 20
1030.204907522264
 30
0.0
 10
-1295.750355873911
 20
1030.210104443317
 30
0.0
 10
-1295.729207582566
 20
1030.214324583635
 30
0.0
 10
-1295.715549312823
 20
1030.217092227152
 30
0.0
 10
-1295.707842205192
 20
1030.219065288154
 30
0.0
 10
-1295.70442881701
 20
1030.219756262531
 30
0.0
 10
-1295.702434333493
 20
1030.220747862107
 30
0.0
 10
-1295.701526544819
 20
1030.22115720982
 30
0.0
 10
-1295.701072650481
 20
1030.221361883676
 30
0.0
 11
-1298.559897640796
 21
1029.754793884402
 31
0.0
 11
-1298.351688746617
 21
1029.787249988939
 31
0.0
 11
-1298.139520216877
 21
1029.820466648878
 31
0.0
 11
-1297.925212391006
 21
1029.854163022016
 31
0.0
 11
-1297.710585608434
 21
1029.888058266152
 31
0.0
 11
-1297.497460208592
 21
1029.921871539081
 31
0.0
 11
-1297.347389149688
 21
1029.945780684581
 31
0.0
 11
-1297.200062017123
 21
1029.969337164196
 31
0.0
 11
-1297.056240230994
 21
1029.992418017439
 31
0.0
 11
-1296.916685211398
 21
1030.014900283826
 31
0.0
 11
-1296.782158378432
 21
1030.03666100287
 31
0.0
 11
-1296.653421152193
 21
1030.057577214085
 31
0.0
 11
-1296.53123495278
 21
1030.077525956985
 31
0.0
 11
-1296.429993483241
 21
1030.094139431411
 31
0.0
 11
-1296.334733081713
 21
1030.109852129804
 31
0.0
 11
-1296.245652447091
 21
1030.124627987102
 31
0.0
 11
-1296.162950278267
 21
1030.138430938242
 31
0.0
 11
-1296.086825274136
 21
1030.151224918165
 31
0.0
 11
-1296.017476133592
 21
1030.162973861807
 31
0.0
 11
-1295.955101555529
 21
1030.173641704107
 31
0.0
 11
-1295.899900238841
 21
1030.183192380004
 31
0.0
 11
-1295.851605737504
 21
1030.191668284807
 31
0.0
 11
-1295.810296438794
 21
1030.199048513221
 31
0.0
 11
-1295.775861303501
 21
1030.205346115896
 31
0.0
 11
-1295.748189292418
 21
1030.210574143482
 31
0.0
 11
-1295.727096236841
 21
1030.214758667478
 31
0.0
 11
-1295.712375753415
 21
1030.217927887275
 31
0.0
 11
-1295.707331865119
 21
1030.219142305813
 31
0.0
 11
-1295.703789482086
 21
1030.220116099968
 31
0.0
 11
-1295.702431066284
 21
1030.220738991822
 31
0.0
 11
-1295.701072650481
 21
1030.221361883676
 31
0.0
  0
SPLINE
  5
216
330
1F
100
AcDbEntity
  8
0
  6
Continuous
 62
     2
100
AcDbSpline
210
0.0
220
0.0
230
1.0
 70
     8
 71
     3
 72
    37
 73
    33
 74
    31
 42
0.0000000001
 43
0.0000000001
 44
0.00000001
 40
0.0
 40
0.0
 40
0.0
 40
0.0
 40
0.0009854789023721
 40
0.0019709578049979
 40
0.0064855526144655
 40
0.011788223454186
 40
0.0268372336184217
 40
0.0483358626704608
 40
0.0764937313355989
 40
0.1114975409098892
 40
0.1534592954725618
 40
0.2024908607220331
 40
0.2585115921389873
 40
0.321791569419164
 40
0.3921289393385459
 40
0.4693218282865346
 40
0.553168350917256
 40
0.6434666152523406
 40
0.7400147258875294
 40
0.8426107861275507
 40
0.96641548538171
 40
1.096841551890505
 40
1.233117755928362
 40
1.374472863437262
 40
1.520135638654444
 40
1.669334846211592
 40
1.821299252950974
 40
2.037091267261464
 40
2.254379029047525
 40
2.471320907424411
 40
2.686075267546682
 40
2.896800477809535
 40
2.896800477809535
 40
2.896800477809535
 40
2.896800477809535
 10
-1295.701209536039
 20
997.8479774568394
 30
0.0
 10
-1295.701511887671
 20
997.8481056261614
 30
0.0
 10
-1295.702116590935
 20
997.8483619648052
 30
0.0
 10
-1295.704089935969
 20
997.8492538681056
 30
0.0
 10
-1295.707683019891
 20
997.8498394904136
 30
0.0
 10
-1295.715722739227
 20
997.8517784147348
 30
0.0
 10
-1295.729444568538
 20
997.8543930241767
 30
0.0
 10
-1295.750612632683
 20
997.8584825395023
 30
0.0
 10
-1295.778376571591
 20
997.8635583756052
 30
0.0
 10
-1295.812862769053
 20
997.8697620043934
 30
0.0
 10
-1295.85422312934
 20
997.8770618991381
 30
0.0
 10
-1295.902499882339
 20
997.885476147532
 30
0.0
 10
-1295.957795292375
 20
997.8950073811351
 30
0.0
 10
-1296.020105208258
 20
997.9056525145941
 30
0.0
 10
-1296.089386349544
 20
997.9174002987843
 30
0.0
 10
-1296.165440235938
 20
997.9302129986779
 30
0.0
 10
-1296.248068418799
 20
997.9440529395673
 30
0.0
 10
-1296.337072422102
 20
997.9588825177617
 30
0.0
 10
-1296.432253774378
 20
997.9746641217201
 30
0.0
 10
-1296.538466479693
 20
997.9921942279707
 30
0.0
 10
-1296.655835734407
 20
998.0114744196183
 30
0.0
 10
-1296.784298607279
 20
998.0324805844548
 30
0.0
 10
-1296.918549734116
 20
998.054340141717
 30
0.0
 10
-1297.057828217383
 20
998.0769268738393
 30
0.0
 10
-1297.201373147169
 20
998.1001146377779
 30
0.0
 10
-1297.348423606622
 20
998.1237773329
 30
0.0
 10
-1297.518570109791
 20
998.1510509683745
 30
0.0
 10
-1297.711149303185
 20
998.1817756699548
 30
0.0
 10
-1297.925144590528
 20
998.21574035957
 30
0.0
 10
-1298.138825746417
 20
998.2494772024237
 30
0.0
 10
-1298.350370649222
 20
998.2827174843483
 30
0.0
 10
-1298.49050135047
 20
998.3045841641456
 30
0.0
 10
-1298.559903205554
 20
998.3154139689558
 30
0.0
 11
-1295.701209536039
 21
997.8479774568394
 31
0.0
 11
-1295.702115339884
 21
997.8483656424413
 31
0.0
 11
-1295.703021143729
 21
997.8487538280433
 31
0.0
 11
-1295.707401611748
 21
997.8498461037558
 31
0.0
 11
-1295.712577871448
 21
997.8509970397002
 31
0.0
 11
-1295.727325326337
 21
997.8539945855667
 31
0.0
 11
-1295.748441548285
 21
997.8580314434737
 31
0.0
 11
-1295.776132848625
 21
997.8631360936328
 31
0.0
 11
-1295.810583527796
 21
997.8693342699269
 31
0.0
 11
-1295.851904638301
 21
997.8766386982165
 31
0.0
 11
-1295.900207232638
 21
997.8850621043617
 31
0.0
 11
-1295.955412892723
 21
997.8945835245838
 31
0.0
 11
-1296.017788420773
 21
997.905244154262
 31
0.0
 11
-1296.087135323726
 21
997.9170064949257
 31
0.0
 11
-1296.163255108524
 21
997.929833048104
 31
0.0
 11
-1296.245949282107
 21
997.9436863153265
 31
0.0
 11
-1296.335019351414
 21
997.9585287981226
 31
0.0
 11
-1296.430266823385
 21
997.9743229980209
 31
0.0
 11
-1296.531493204961
 21
997.9910314165518
 31
0.0
 11
-1296.653660175505
 21
998.0111021630604
 31
0.0
 11
-1296.782376433184
 21
998.0321517196879
 31
0.0
 11
-1296.916881058402
 21
998.0540539931292
 31
0.0
 11
-1297.056413131567
 21
998.0766828900788
 31
0.0
 11
-1297.200211733084
 21
998.0999123172311
 31
0.0
 11
-1297.347515943359
 21
998.1236161812803
 31
0.0
 11
-1297.497564842799
 21
998.1476683889219
 31
0.0
 11
-1297.710661486041
 21
998.1816685959672
 31
0.0
 11
-1297.925263063224
 21
998.2157293430622
 31
0.0
 11
-1298.139550155061
 21
998.2495645446379
 31
0.0
 11
-1298.351703342267
 21
998.2828881151256
 31
0.0
 11
-1298.559903205554
 21
998.3154139689558
 31
0.0
  0
SPLINE
  5
217
330
1F
100
AcDbEntity
  8
0
  6
Continuous
 62
     2
100
AcDbSpline
210
0.0
220
0.0
230
1.0
 70
     8
 71
     3
 72
    31
 73
    27
 74
    25
 42
0.0000000001
 43
0.0000000001
 44
0.00000001
 40
0.0
 40
0.0
 40
0.0
 40
0.0
 40
0.010184817935194
 40
0.0356131337030041
 40
0.0768988572823168
 40
0.1340954235996548
 40
0.207299924374408
 40
0.2961521144713786
 40
0.4003379182011795
 40
0.519538846702963
 40
0.700418206307408
 40
0.9063940672825974
 40
1.136666245411854
 40
1.390174612121802
 40
1.665636289928617
 40
1.961533421068105
 40
2.275409909961165
 40
2.606998644712036
 40
2.955212098976099
 40
3.318985867683973
 40
3.696286907182429
 40
4.085090214584516
 40
4.683640818154291
 40
5.298483770608122
 40
5.923277492264412
 40
6.552971070869211
 40
6.552971070869211
 40
6.552971070869211
 40
6.552971070869211
 10
-1299.196592235013
 20
1036.273067857712
 30
0.0
 10
-1299.194447623232
 20
1036.270398439354
 30
0.0
 10
-1299.186948584313
 20
1036.261064315415
 30
0.0
 10
-1299.182329487361
 20
1036.234971580915
 30
0.0
 10
-1299.17244251947
 20
1036.195320905841
 30
0.0
 10
-1299.162756935094
 20
1036.138681596888
 30
0.0
 10
-1299.150881773273
 20
1036.066657542787
 30
0.0
 10
-1299.13789683491
 20
1035.97882945577
 30
0.0
 10
-1299.123483780746
 20
1035.875763345605
 30
0.0
 10
-1299.10576718851
 20
1035.742172647914
 30
0.0
 10
-1299.084620204101
 20
1035.574818657773
 30
0.0
 10
-1299.059991986777
 20
1035.370587607299
 30
0.0
 10
-1299.033567359184
 20
1035.142191748046
 30
0.0
 10
-1299.005554219693
 20
1034.890665415494
 30
0.0
 10
-1298.976144166061
 20
1034.617286544612
 30
0.0
 10
-1298.945582091619
 20
1034.323794539213
 30
0.0
 10
-1298.914073822751
 20
1034.011592511399
 30
0.0
 10
-1298.881813045554
 20
1033.681940605407
 30
0.0
 10
-1298.84894876916
 20
1033.335637380194
 30
0.0
 10
-1298.815685500933
 20
1032.974067645357
 30
0.0
 10
-1298.782224748346
 20
1032.598930444163
 30
0.0
 10
-1298.743053856247
 20
1032.145734630073
 30
0.0
 10
-1298.698880444203
 20
1031.613497302177
 30
0.0
 10
-1298.650671827801
 20
1031.002666421955
 30
0.0
 10
-1298.603925943658
 20
1030.381309829362
 30
0.0
 10
-1298.574611907298
 20
1029.964175622567
 30
0.0
 10
-1298.559897640796
 20
1029.754793884402
 30
0.0
 11
-1299.196592235013
 21
1036.273067857712
 31
0.0
 11
-1299.19059676833
 21
1036.26483469941
 31
0.0
 11
-1299.183090830371
 21
1036.240539429538
 31
0.0
 11
-1299.17411666565
 21
1036.200240852156
 31
0.0
 11
-1299.16371651868
 21
1036.143997771324
 31
0.0
 11
-1299.151907542745
 21
1036.071752030819
 31
0.0
 11
-1299.138751444746
 21
1035.983879232011
 31
0.0
 11
-1299.124290405779
 21
1035.880701908674
 31
0.0
 11
-1299.108566606943
 21
1035.762542594586
 31
0.0
 11
-1299.085827927753
 21
1035.583098187597
 31
0.0
 11
-1299.061116984439
 21
1035.378609986018
 31
0.0
 11
-1299.034612512037
 21
1035.149868234335
 31
0.0
 11
-1299.006515095054
 21
1034.897921757577
 31
0.0
 11
-1298.977022853835
 21
1034.624043420266
 31
0.0
 11
-1298.946354056564
 21
1034.329739942389
 31
0.0
 11
-1298.914820050621
 21
1034.017451523217
 31
0.0
 11
-1298.882510321969
 21
1033.68744065908
 31
0.0
 11
-1298.84960148072
 21
1033.340785761671
 31
0.0
 11
-1298.816263256941
 21
1032.978542863003
 31
0.0
 11
-1298.782734587946
 21
1032.602734530522
 31
0.0
 11
-1298.749247938576
 21
1032.21537596774
 31
0.0
 11
-1298.699726562864
 21
1031.618877469518
 31
0.0
 11
-1298.651304664213
 21
1031.005944213842
 31
0.0
 11
-1298.604558619721
 21
1030.382901677617
 31
0.0
 11
-1298.559897640796
 21
1029.754793884402
 31
0.0
  0
SPLINE
  5
218
330
1F
100
AcDbEntity
  8
0
  6
Continuous
 62
     2
100
AcDbSpline
210
0.0
220
0.0
230
1.0
 70
     8
 71
     3
 72
    23
 73
    19
 74
    17
 42
0.0000000001
 43
0.0000000001
 44
0.00000001
 40
0.0
 40
0.0
 40
0.0
 40
0.0
 40
0.634250142103485
 40
1.26332349118241
 40
1.882037204857607
 40
2.483094418317969
 40
3.061194762423322
 40
3.609802988150786
 40
4.123001267852833
 40
4.595992763825876
 40
5.023396367358775
 40
5.402362306773611
 40
5.729686449042306
 40
6.002106785208131
 40
6.217034840466345
 40
6.371942964244021
 40
6.444309915924968
 40
6.496091088433305
 40
6.496091088433305
 40
6.496091088433305
 40
6.496091088433305
 10
-1313.718851861072
 20
997.786051951049
 30
0.0
 10
-1313.719397240451
 20
997.5746359388575
 30
0.0
 10
-1313.720483547785
 20
997.1535295064208
 30
0.0
 10
-1313.721876938408
 20
996.5261853089355
 30
0.0
 10
-1313.723143212343
 20
995.9099051819745
 30
0.0
 10
-1313.724208503276
 20
995.3106156933284
 30
0.0
 10
-1313.725021112613
 20
994.7346943256223
 30
0.0
 10
-1313.72560003998
 20
994.1880590057963
 30
0.0
 10
-1313.725968607414
 20
993.6764597923651
 30
0.0
 10
-1313.726106584944
 20
993.2052620035406
 30
0.0
 10
-1313.725993376305
 20
992.7788083022011
 30
0.0
 10
-1313.725647884068
 20
992.4009105674972
 30
0.0
 10
-1313.725105115684
 20
992.0746740790458
 30
0.0
 10
-1313.724325935441
 20
991.8031178369706
 30
0.0
 10
-1313.723368334176
 20
991.5890337271328
 30
0.0
 10
-1313.722057577166
 20
991.4416387614099
 30
0.0
 10
-1313.720628993807
 20
991.3486283884768
 30
0.0
 10
-1313.719374897317
 20
991.3072642304788
 30
0.0
 10
-1313.718851823874
 20
991.2900115767239
 30
0.0
 11
-1313.718851861072
 21
997.786051951049
 31
0.0
 11
-1313.72044994186
 21
997.1518038222413
 31
0.0
 11
-1313.721867018413
 21
996.5227320692469
 31
0.0
 11
-1313.723126315971
 21
995.9040196371272
 31
0.0
 11
-1313.724184664695
 21
995.3029633554441
 31
0.0
 11
-1313.725000190604
 21
994.7248635865701
 31
0.0
 11
-1313.725580543423
 21
994.1762556678099
 31
0.0
 11
-1313.725940197736
 21
993.6630575141324
 31
0.0
 11
-1313.726064795424
 21
993.1900660345705
 31
0.0
 11
-1313.725940098716
 21
992.762662449228
 31
0.0
 11
-1313.725581347333
 21
992.3836966796207
 31
0.0
 11
-1313.725002877543
 21
992.0563730485082
 31
0.0
 11
-1313.724189545515
 21
991.783953926478
 31
0.0
 11
-1313.723094841435
 21
991.5690286590941
 31
0.0
 11
-1313.721585360176
 21
991.414127889959
 31
0.0
 11
-1313.720313439465
 21
991.3417721167733
 31
0.0
 11
-1313.718851823874
 21
991.2900115767239
 31
0.0
  0
SPLINE
  5
219
330
1F
100
AcDbEntity
  8
0
  6
Continuous
 62
     2
100
AcDbSpline
210
0.0
220
0.0
230
1.0
 70
     8
 71
     3
 72
    31
 73
    27
 74
    25
 42
0.0000000001
 43
0.0000000001
 44
0.00000001
 40
0.0
 40
0.0
 40
0.0
 40
0.0
 40
0.630218507426316
 40
1.255589783699479
 40
1.871121007090057
 40
2.470014025609806
 40
2.85792197678147
 40
3.234107393811111
 40
3.596711275636972
 40
3.943861510893742
 40
4.274624942446066
 40
4.588040503064844
 40
4.884625965972424
 40
5.160952619893374
 40
5.415277520675036
 40
5.646150931390236
 40
5.852533372539383
 40
6.03370514737313
 40
6.152938740746826
 40
6.257157870087189
 40
6.346024019096655
 40
6.419203133463921
 40
6.476322672710793
 40
6.517506824559519
 40
6.542839923667953
 40
6.552949796063161
 40
6.552949796063161
 40
6.552949796063161
 40
6.552949796063161
 10
-1298.559903205554
 20
998.3154139689558
 30
0.0
 10
-1298.574618130513
 20
998.1058568551023
 30
0.0
 10
-1298.603934802791
 20
997.6883544045145
 30
0.0
 10
-1298.650759337004
 20
997.0664050482192
 30
0.0
 10
-1298.699040507777
 20
996.4550421704303
 30
0.0
 10
-1298.743242654703
 20
995.9227619577622
 30
0.0
 10
-1298.782385839783
 20
995.470122015605
 30
0.0
 10
-1298.815764144215
 20
995.0960419661862
 30
0.0
 10
-1298.848926436166
 20
994.735583913689
 30
0.0
 10
-1298.881678890255
 20
994.39029414471
 30
0.0
 10
-1298.913834755449
 20
994.0614188777819
 30
0.0
 10
-1298.945284130721
 20
993.7494112348338
 30
0.0
 10
-1298.975836922979
 20
993.4555521774357
 30
0.0
 10
-1299.005285671205
 20
993.1813829644055
 30
0.0
 10
-1299.033348626454
 20
992.9290965388525
 30
0.0
 10
-1299.059833752343
 20
992.7000954662448
 30
0.0
 10
-1299.084525444537
 20
992.495435492196
 30
0.0
 10
-1299.105727840916
 20
992.3278426248302
 30
0.0
 10
-1299.123488652874
 20
992.1941373226499
 30
0.0
 10
-1299.137932455692
 20
992.0910484303753
 30
0.0
 10
-1299.150947443686
 20
992.0032178765682
 30
0.0
 10
-1299.162845773541
 20
991.9312260736377
 30
0.0
 10
-1299.172554833482
 20
991.8746637175211
 30
0.0
 10
-1299.182435150459
 20
991.8350962799356
 30
0.0
 10
-1299.187057333906
 20
991.8091151762458
 30
0.0
 10
-1299.194481787958
 20
991.799797582237
 30
0.0
 10
-1299.196599564202
 20
991.7971398003848
 30
0.0
 11
-1298.559903205554
 21
998.3154139689558
 31
0.0
 11
-1298.604578120472
 21
997.6867809129686
 31
0.0
 11
-1298.651389399512
 21
997.0631640936459
 31
0.0
 11
-1298.699896270899
 21
996.4495471362557
 31
0.0
 11
-1298.749474568282
 21
995.8527097714231
 31
0.0
 11
-1298.782900956875
 21
995.4662446952159
 31
0.0
 11
-1298.816341376011
 21
995.0915485431756
 31
0.0
 11
-1298.849572343948
 21
994.7304706043797
 31
0.0
 11
-1298.882365366129
 21
994.3848727115402
 31
0.0
 11
-1298.914566027973
 21
994.0556804196665
 31
0.0
 11
-1298.946014487565
 21
993.7438466369756
 31
0.0
 11
-1298.976708413307
 21
993.448853722263
 31
0.0
 11
-1299.00624907313
 21
993.1741106257449
 31
0.0
 11
-1299.034405535911
 21
992.9213491398312
 31
0.0
 11
-1299.060970379334
 21
992.6920091283436
 31
0.0
 11
-1299.0857419654
 21
992.4871187172979
 31
0.0
 11
-1299.108543971258
 21
992.3073875833081
 31
0.0
 11
-1299.124297373226
 21
992.1891992585241
 31
0.0
 11
-1299.138790596907
 21
992.0859927985141
 31
0.0
 11
-1299.151977853126
 21
991.9981105550677
 31
0.0
 11
-1299.163813352709
 21
991.9258948799743
 31
0.0
 11
-1299.174230240878
 21
991.8697332364384
 31
0.0
 11
-1299.183202252107
 21
991.8295382444865
 31
0.0
 11
-1299.190676366509
 21
991.8053328003812
 31
0.0
 11
-1299.196599564202
 21
991.7971398003848
 31
0.0
  0
MTEXT
  5
21B
330
1F
100
AcDbEntity
  8
1
 62
     4
100
AcDbMText
 10
-1457.676081276009
 20
825.0441315662415
 30
0.0
 40
14.0
 41
0.0
 71
     2
 72
     1
  1
 
  7
CONVERTER_12
 73
     1
 44
1.32052821128451
  0
MTEXT
  5
21C
330
1F
100
AcDbEntity
  8
1
 62
     4
100
AcDbMText
 10
-1498.668012834188
 20
798.69250149546
 30
0.0
 40
14.0
 41
0.0
 71
     2
 72
     1
  1
 
  7
CONVERTER_12
 73
     1
 44
1.32052821128451
  0
TEXT
  5
21E
330
1F
100
AcDbEntity
  8
Symbole_ISO_
 62
     7
100
AcDbText
 10
-1464.4
 20
757.694753130188
 30
0.0
 40
8.00000011920928
  1
CGCP 06 MB
 41
0.89999994635582
  7
CONVERTER_13
100
AcDbText
  0
TEXT
  5
21F
330
1F
100
AcDbEntity
  8
Symbole_ISO_
 62
     7
100
AcDbText
 10
-1238.190330415576
 20
746.117272881545
 30
0.0
 40
10.0
  1
1:2
 41
0.67499998211861
  7
CONVERTER_11
100
AcDbText
  0
TEXT
  5
220
330
1F
100
AcDbEntity
  8
Symbole_ISO_
 62
     7
100
AcDbText
 10
-1463.89578755725
 20
743.3672728517427
 30
0.0
 40
8.00000011920928
  1
Dust cover for transportation for 06 poles hoods
 41
0.89999994635582
  7
CONVERTER_13
100
AcDbText
  0
MTEXT
  5
221
330
1F
100
AcDbEntity
  8
Symbole_ISO_
 62
     7
100
AcDbMText
 10
-1522.695787557251
 20
761.6672728815447
 30
0.0
 40
5.0
 41
0.0
 71
     4
 72
     1
  1
Date
  7
CONVERTER_11
 73
     1
 44
0.75727272727273
  0
MTEXT
  5
222
330
1F
100
AcDbEntity
  8
Symbole_ISO_
 62
     7
100
AcDbMText
 10
-1522.695787557251
 20
746.3672728815447
 30
0.0
 40
5.0
 41
0.0
 71
     4
 72
     1
  1
Sign.
  7
CONVERTER_11
 73
     1
 44
0.75727272727273
  0
MTEXT
  5
223
330
1F
100
AcDbEntity
  8
Symbole_ISO_
 62
     7
100
AcDbMText
 10
-1232.820787557251
 20
762.9172728815447
 30
0.0
 40
5.0
 41
0.0
 71
     5
 72
     1
  1
Scale
  7
CONVERTER_11
 73
     1
 44
0.75727272727273
  0
MTEXT
  5
225
330
1F
100
AcDbEntity
  8
Symbole_ISO_
 62
     7
100
AcDbMText
 10
-1492.89578755725
 20
761.6672728815447
 30
0.0
 40
6.9999998807907
 41
0.0
 71
     5
 72
     1
  1
31.10.2012
  7
CONVERTER_14
 73
     1
 44
0.75727272727273
  0
MTEXT
  5
226
330
1F
100
AcDbEntity
  8
Symbole_ISO_
 62
     7
100
AcDbMText
 10
-1492.89578755725
 20
745.9672728815447
 30
0.0
 40
6.9999998807907
 41
0.0
 71
     5
 72
     1
  1
G. Merafina
  7
CONVERTER_14
 73
     1
 44
0.75727272727273
  0
DIMENSION
  5
233
330
1F
100
AcDbEntity
  8
1
100
AcDbDimension
  2
*D2
 10
-1574.873115511991
 20
969.0859895201357
 30
0.0
 11
-1508.02400107612
 21
969.0859895201357
 31
0.0
 70
    32
  1
<>
 71
     5
 42
-1.0
 53
0.00013888888889
  3
ME10_DIM_10
100
AcDbAlignedDimension
 13
-1441.174886640248
 23
997.4942017966345
 33
0.0
 14
-1574.873115511991
 24
1030.575981865618
 34
0.0
100
AcDbRotatedDimension
  0
DIMENSION
  5
23F
330
1F
100
AcDbEntity
  8
1
100
AcDbDimension
  2
*D3
 10
-1425.84153052016
 20
892.9450184306645
 30
0.0
 11
-1425.84153052016
 21
879.6950198251448
 31
0.0
 70
    32
  1
27
 71
     5
 42
-1.0
 53
90.0
  3
ME10_DIM_11
100
AcDbAlignedDimension
 13
-1470.22447893786
 23
866.4450212196249
 33
0.0
 14
-1441.159286640247
 24
892.9450184306645
 34
0.0
 50
90.0
100
AcDbRotatedDimension
  0
DIMENSION
  5
24B
330
1F
100
AcDbEntity
  8
1
100
AcDbDimension
  2
*D4
 10
-1336.303166714526
 20
1043.984218393904
 30
0.0
 11
-1336.303166714526
 21
1014.035103957018
 31
0.0
 70
    32
  1
<>
 71
     5
 42
-1.0
 53
90.0
  3
ME10_DIM_12
100
AcDbAlignedDimension
 13
-1321.201402105549
 23
984.0859895201316
 33
0.0
 14
-1321.201402105549
 24
1043.984218393904
 34
0.0
 50
90.0
100
AcDbRotatedDimension
  0
HATCH
  5
24C
330
1F
100
AcDbEntity
  8
1
  6
Continuous
 62
     7
100
AcDbHatch
 10
0.0
 20
0.0
 30
0.0
210
0.0
220
0.0
230
1.0
  2
SOLID
 70
     1
 71
     1
 91
        1
 92
        1
 93
       14
 72
     1
 10
-1186.112313630956
 20
756.4215832199671
 11
-1187.851404123155
 21
757.4249046577745
 72
     1
 10
-1187.851404123155
 20
757.4249046577745
 11
-1187.851404123155
 21
754.3591681621265
 72
     1
 10
-1187.851404123155
 20
754.3591681621265
 11
-1185.779165328629
 21
754.3591681621265
 72
     2
 10
-1185.779165328629
 20
753.6925014954597
 40
0.6666666666668561
 50
270.0
 51
450.0
 73
     0
 72
     1
 10
-1185.779165328629
 20
753.0258348287929
 11
-1187.851404123155
 21
753.0258348287929
 72
     1
 10
-1187.851404123155
 20
753.0258348287929
 11
-1187.851404123155
 21
749.9600983331449
 72
     1
 10
-1187.851404123155
 20
749.9600983331449
 11
-1186.112313630956
 21
750.9634197709523
 72
     2
 10
-1185.779165328629
 20
750.3859627135865
 40
0.66666666666606
 50
240.0183606311155
 51
420.0183606312509
 73
     0
 72
     1
 10
-1185.446017026304
 20
749.8085056562207
 11
-1188.184922487495
 21
748.2283678901478
 72
     2
 10
-1188.518070789821
 20
748.8058249475135
 40
0.6666666666681067
 50
60.01836063118322
 51
180.0
 73
     0
 72
     1
 10
-1189.184737456489
 20
748.8058249475135
 11
-1189.184737456489
 21
758.5791780434059
 72
     2
 10
-1188.518070789821
 20
758.5791780434059
 40
0.6666666666665145
 50
180.0
 51
299.9816393688168
 73
     0
 72
     1
 10
-1188.184922487495
 20
759.1566351007717
 11
-1185.446017026304
 21
757.5764973346987
 72
     2
 10
-1185.779165328629
 20
756.9990402773326
 40
0.6666666666665145
 50
299.9816393687514
 51
479.9816393688823
 73
     0
 97
       14
330
132
330
1BC
330
133
330
1BD
330
134
330
1B9
330
12C
330
12D
330
12E
330
1BA
330
12F
330
130
330
131
330
1C0
 75
     0
 76
     1
 98
        1
 10
0.0
 20
0.0
  0
HATCH
  5
24D
330
1F
100
AcDbEntity
  8
Schraffur
  6
Continuous
 62
     7
100
AcDbHatch
 10
0.0
 20
0.0
 30
0.0
210
0.0
220
0.0
230
1.0
  2
SOLID
 70
     1
 71
     1
 91
        1
 92
        1
 93
       13
 72
     2
 10
-1196.65479218808
 20
760.1966174288215
 40
0.5299324249501564
 50
30.00000000001537
 51
180.0
 73
     1
 72
     1
 10
-1197.184724613031
 20
760.1966174288215
 11
-1197.18472461303
 21
750.3859627135865
 72
     2
 10
-1196.518057946364
 20
750.3859627135865
 40
0.6666666666660603
 50
180.0
 51
360.0
 73
     1
 72
     1
 10
-1195.851391279698
 20
750.3859627135865
 11
-1195.851391279698
 21
757.1982933399529
 72
     1
 10
-1195.851391279698
 20
757.1982933399529
 11
-1194.140077240144
 21
754.2342104757415
 72
     2
 10
-1193.85140210555
 20
754.4008771424081
 40
0.3333333333324884
 50
210.0000000000763
 51
329.9999999999432
 73
     1
 72
     1
 10
-1193.562726970956
 20
754.2342104757415
 11
-1191.851412931402
 21
757.1982933399529
 72
     1
 10
-1191.851412931402
 20
757.1982933399529
 11
-1191.851412931402
 21
747.2673583273709
 72
     2
 10
-1191.184746264736
 20
747.2673583273709
 40
0.666666666665833
 50
180.0
 51
360.0
 73
     1
 72
     1
 10
-1190.518079598068
 20
747.2673583273709
 11
-1190.518079598068
 21
760.1966174288214
 72
     2
 10
-1191.04801202302
 20
760.1966174288214
 40
0.5299324249519941
 50
0.0
 51
149.9999999999248
 73
     1
 72
     1
 10
-1191.506946965315
 20
760.4615836412967
 11
-1193.85140210555
 21
756.4008682223451
 72
     1
 10
-1193.85140210555
 20
756.4008682223451
 11
-1196.195857245784
 21
760.4615836412967
 97
       13
330
125
330
1B4
330
126
330
1B5
330
127
330
128
330
1B6
330
129
330
12A
330
1B7
330
12B
330
1B8
330
124
 75
     0
 76
     1
 98
        1
 10
0.0
 20
0.0
  0
HATCH
  5
24E
330
1F
100
AcDbEntity
  8
Schraffur
  6
Continuous
 62
     7
100
AcDbHatch
 10
0.0
 20
0.0
 30
0.0
210
0.0
220
0.0
230
1.0
  2
SOLID
 70
     1
 71
     1
 91
        1
 92
        1
 93
        7
 72
     1
 10
-1198.51806675461
 20
749.2325426275213
 11
-1198.51806675461
 21
758.5791780434059
 72
     2
 10
-1199.184733421278
 20
758.5791780434059
 40
0.6666666666681067
 50
0.0
 51
180.0
 73
     1
 72
     1
 10
-1199.851400087944
 20
758.5791780434059
 11
-1199.851400087944
 21
749.2325451711837
 72
     2
 10
-1198.518062350487
 20
749.2325451711837
 40
1.333337737456986
 50
180.0
 51
240.0183606311468
 73
     1
 72
     1
 10
-1199.184361155979
 20
748.0776272416643
 11
-1194.849090746636
 21
745.576509697812
 72
     2
 10
-1194.51594244431
 20
746.1539667551777
 40
0.6666666666665145
 50
240.0183606311832
 51
420.0183606311832
 73
     1
 72
     1
 10
-1194.182794141984
 20
746.7314238125435
 11
-1198.51806675461
 21
749.2325426275213
 97
        7
330
1B1
330
121
330
1B2
330
122
330
1B3
330
123
330
120
 75
     0
 76
     1
 98
        1
 10
0.0
 20
0.0
  0
HATCH
  5
24F
330
1F
100
AcDbEntity
  8
Schraffur
  6
Continuous
 62
     7
100
AcDbHatch
 10
0.0
 20
0.0
 30
0.0
210
0.0
220
0.0
230
1.0
  2
SOLID
 70
     1
 71
     1
 91
        1
 92
        1
 93
        4
 72
     1
 10
-1201.184735438884
 20
756.9990402773329
 11
-1201.184735438884
 21
750.3859627135865
 72
     2
 10
-1201.85140210555
 20
750.3859627135865
 40
0.6666666666649235
 50
0.0
 51
180.0
 73
     0
 72
     1
 10
-1202.518068772215
 20
750.3859627135865
 11
-1202.518068772215
 21
756.9990402773329
 72
     2
 10
-1201.85140210555
 20
756.9990402773329
 40
0.6666666666660603
 50
180.0
 51
360.0
 73
     0
 97
        4
330
11F
330
1B0
330
11E
330
1AF
 75
     0
 76
     1
 98
        1
 10
0.0
 20
0.0
  0
ENDSEC
  0
SECTION
  2
OBJECTS
  0
DICTIONARY
  5
C
330
0
100
AcDbDictionary
281
     1
  3
ACAD_GROUP
350
D
  3
ACAD_LAYOUT
350
1A
  3
ACAD_MATERIAL
350
3B
  3
ACAD_MLEADERSTYLE
350
252
  3
ACAD_MLINESTYLE
350
17
  3
ACAD_PLOTSETTINGS
350
19
  3
ACAD_PLOTSTYLENAME
350
E
  3
ACAD_SCALELIST
350
4D
  3
ACAD_VISUALSTYLE
350
2A
  3
AcDbVariableDictionary
350
250
  0
DICTIONARY
  5
D
102
{ACAD_REACTORS
330
C
102
}
330
C
100
AcDbDictionary
281
     1
  0
DICTIONARY
  5
1A
102
{ACAD_REACTORS
330
C
102
}
330
C
100
AcDbDictionary
281
     1
  3
Layout1
350
1E
  3
Layout2
350
26
  3
Model
350
22
  0
DICTIONARY
  5
3B
102
{ACAD_REACTORS
330
C
102
}
330
C
100
AcDbDictionary
281
     1
  3
ByBlock
350
3D
  3
ByLayer
350
3C
  3
Global
350
3E
  0
DICTIONARY
  5
252
102
{ACAD_REACTORS
330
C
102
}
330
C
100
AcDbDictionary
281
     1
  0
DICTIONARY
  5
17
102
{ACAD_REACTORS
330
C
102
}
330
C
100
AcDbDictionary
281
     1
  3
Standard
350
18
  0
DICTIONARY
  5
19
102
{ACAD_REACTORS
330
C
102
}
330
C
100
AcDbDictionary
281
     1
  0
ACDBDICTIONARYWDFLT
  5
E
102
{ACAD_REACTORS
330
C
102
}
330
C
100
AcDbDictionary
281
     1
  3
Normal
350
F
100
AcDbDictionaryWithDefault
340
F
  0
DICTIONARY
  5
4D
102
{ACAD_REACTORS
330
C
102
}
330
C
100
AcDbDictionary
281
     1
  3
A0
350
4E
  3
A1
350
4F
  3
A2
350
50
  3
A3
350
51
  3
A4
350
52
  3
A5
350
53
  3
A6
350
54
  3
A7
350
55
  3
A8
350
56
  3
A9
350
57
  3
B0
350
58
  3
B1
350
59
  3
B2
350
5A
  3
B3
350
5B
  3
B4
350
5C
  3
B5
350
5D
  3
B6
350
5E
  3
B7
350
5F
  3
B8
350
60
  3
B9
350
61
  3
C0
350
62
  3
C1
350
63
  3
C2
350
64
  3
C3
350
65
  3
C4
350
66
  3
C5
350
67
  3
C6
350
68
  3
C7
350
69
  3
C8
350
6A
  3
C9
350
6B
  3
D0
350
6C
  3
D1
350
6D
  3
D2
350
6E
  0
DICTIONARY
  5
2A
102
{ACAD_REACTORS
330
C
102
}
330
C
100
AcDbDictionary
281
     1
  3
2dWireframe
350
2F
  3
3D Hidden
350
31
  3
3dWireframe
350
30
  3
Basic
350
32
  3
Brighten
350
36
  3
ColorChange
350
3A
  3
Conceptual
350
34
  3
Dim
350
35
  3
Facepattern
350
39
  3
Flat
350
2B
  3
FlatWithEdges
350
2C
  3
Gouraud
350
2D
  3
GouraudWithEdges
350
2E
  3
Linepattern
350
38
  3
Realistic
350
33
  3
Thicken
350
37
  0
DICTIONARY
  5
250
102
{ACAD_REACTORS
330
C
102
}
330
C
100
AcDbDictionary
281
     1
  3
CANNOSCALE
350
253
  3
DIMASSOC
350
254
  3
HIDETEXT
350
255
  0
LAYOUT
  5
1E
102
{ACAD_REACTORS
330
1A
102
}
330
1A
100
AcDbPlotSettings
  1

  2
none_device
  4

  6

 40
0.0
 41
0.0
 42
0.0
 43
0.0
 44
0.0
 45
0.0
 46
0.0
 47
0.0
 48
0.0
 49
0.0
140
0.0
141
0.0
142
1.0
143
1.0
 70
   688
 72
     0
 73
     0
 74
     5
  7

 75
    16
147
1.0
148
0.0
149
0.0
100
AcDbLayout
  1
Layout1
 70
     1
 71
     1
 10
0.0
 20
0.0
 11
12.0
 21
9.0
 12
0.0
 22
0.0
 32
0.0
 14
1.00000000000000E+20
 24
1.00000000000000E+20
 34
1.00000000000000E+20
 15
-1.00000000000000E+20
 25
-1.00000000000000E+20
 35
-1.00000000000000E+20
146
0.0
 13
0.0
 23
0.0
 33
0.0
 16
1.0
 26
0.0
 36
0.0
 17
0.0
 27
1.0
 37
0.0
 76
     0
330
1B
  0
LAYOUT
  5
26
102
{ACAD_REACTORS
330
1A
102
}
330
1A
100
AcDbPlotSettings
  1

  2
none_device
  4

  6

 40
0.0
 41
0.0
 42
0.0
 43
0.0
 44
0.0
 45
0.0
 46
0.0
 47
0.0
 48
0.0
 49
0.0
140
0.0
141
0.0
142
1.0
143
1.0
 70
   688
 72
     0
 73
     0
 74
     5
  7

 75
    16
147
1.0
148
0.0
149
0.0
100
AcDbLayout
  1
Layout2
 70
     1
 71
     2
 10
0.0
 20
0.0
 11
0.0
 21
0.0
 12
0.0
 22
0.0
 32
0.0
 14
0.0
 24
0.0
 34
0.0
 15
0.0
 25
0.0
 35
0.0
146
0.0
 13
0.0
 23
0.0
 33
0.0
 16
1.0
 26
0.0
 36
0.0
 17
0.0
 27
1.0
 37
0.0
 76
     0
330
23
  0
LAYOUT
  5
22
102
{ACAD_REACTORS
330
1A
102
}
330
1A
100
AcDbPlotSettings
  1

  2
none_device
  4

  6

 40
0.0
 41
0.0
 42
0.0
 43
0.0
 44
0.0
 45
0.0
 46
0.0
 47
0.0
 48
0.0
 49
0.0
140
0.0
141
0.0
142
1.0
143
1.0
 70
  1712
 72
     0
 73
     0
 74
     0
  7

 75
     0
147
1.0
148
0.0
149
0.0
100
AcDbLayout
  1
Model
 70
     1
 71
     0
 10
0.0
 20
0.0
 11
12.0
 21
9.0
 12
0.0
 22
0.0
 32
0.0
 14
-1725.701402105549
 24
738.1925014954597
 34
0.0
 15
-1170.701402105549
 25
1139.19250149546
 35
0.0
146
0.0
 13
0.0
 23
0.0
 33
0.0
 16
1.0
 26
0.0
 36
0.0
 17
0.0
 27
1.0
 37
0.0
 76
     0
330
1F
331
29
  0
MATERIAL
  5
3D
102
{ACAD_REACTORS
330
3B
102
}
102
{ACAD_XDICTIONARY
360
278
102
}
330
3B
100
AcDbMaterial
  1
ByBlock
  0
MATERIAL
  5
3C
102
{ACAD_REACTORS
330
3B
102
}
102
{ACAD_XDICTIONARY
360
276
102
}
330
3B
100
AcDbMaterial
  1
ByLayer
  0
MATERIAL
  5
3E
102
{ACAD_REACTORS
330
3B
102
}
102
{ACAD_XDICTIONARY
360
27A
102
}
330
3B
100
AcDbMaterial
  1
Global
  0
MLINESTYLE
  5
18
102
{ACAD_REACTORS
330
17
102
}
330
17
100
AcDbMlineStyle
  2
Standard
 70
     0
  3

 62
   256
 51
90.0
 52
90.0
 71
     2
 49
0.5
 62
   256
  6
BYLAYER
 49
-0.5
 62
   256
  6
BYLAYER
  0
ACDBPLACEHOLDER
  5
F
102
{ACAD_REACTORS
330
E
102
}
330
E
  0
SCALE
  5
4E
102
{ACAD_REACTORS
330
4D
102
}
330
4D
100
AcDbScale
 70
     0
300
1:1
140
1.0
141
1.0
290
     1
  0
SCALE
  5
4F
102
{ACAD_REACTORS
330
4D
102
}
330
4D
100
AcDbScale
 70
     0
300
1:2
140
1.0
141
2.0
290
     0
  0
SCALE
  5
50
102
{ACAD_REACTORS
330
4D
102
}
330
4D
100
AcDbScale
 70
     0
300
1:4
140
1.0
141
4.0
290
     0
  0
SCALE
  5
51
102
{ACAD_REACTORS
330
4D
102
}
330
4D
100
AcDbScale
 70
     0
300
1:5
140
1.0
141
5.0
290
     0
  0
SCALE
  5
52
102
{ACAD_REACTORS
330
4D
102
}
330
4D
100
AcDbScale
 70
     0
300
1:8
140
1.0
141
8.0
290
     0
  0
SCALE
  5
53
102
{ACAD_REACTORS
330
4D
102
}
330
4D
100
AcDbScale
 70
     0
300
1:10
140
1.0
141
10.0
290
     0
  0
SCALE
  5
54
102
{ACAD_REACTORS
330
4D
102
}
330
4D
100
AcDbScale
 70
     0
300
1:16
140
1.0
141
16.0
290
     0
  0
SCALE
  5
55
102
{ACAD_REACTORS
330
4D
102
}
330
4D
100
AcDbScale
 70
     0
300
1:20
140
1.0
141
20.0
290
     0
  0
SCALE
  5
56
102
{ACAD_REACTORS
330
4D
102
}
330
4D
100
AcDbScale
 70
     0
300
1:30
140
1.0
141
30.0
290
     0
  0
SCALE
  5
57
102
{ACAD_REACTORS
330
4D
102
}
330
4D
100
AcDbScale
 70
     0
300
1:40
140
1.0
141
40.0
290
     0
  0
SCALE
  5
58
102
{ACAD_REACTORS
330
4D
102
}
330
4D
100
AcDbScale
 70
     0
300
1:50
140
1.0
141
50.0
290
     0
  0
SCALE
  5
59
102
{ACAD_REACTORS
330
4D
102
}
330
4D
100
AcDbScale
 70
     0
300
1:100
140
1.0
141
100.0
290
     0
  0
SCALE
  5
5A
102
{ACAD_REACTORS
330
4D
102
}
330
4D
100
AcDbScale
 70
     0
300
2:1
140
2.0
141
1.0
290
     0
  0
SCALE
  5
5B
102
{ACAD_REACTORS
330
4D
102
}
330
4D
100
AcDbScale
 70
     0
300
4:1
140
4.0
141
1.0
290
     0
  0
SCALE
  5
5C
102
{ACAD_REACTORS
330
4D
102
}
330
4D
100
AcDbScale
 70
     0
300
8:1
140
8.0
141
1.0
290
     0
  0
SCALE
  5
5D
102
{ACAD_REACTORS
330
4D
102
}
330
4D
100
AcDbScale
 70
     0
300
10:1
140
10.0
141
1.0
290
     0
  0
SCALE
  5
5E
102
{ACAD_REACTORS
330
4D
102
}
330
4D
100
AcDbScale
 70
     0
300
100:1
140
100.0
141
1.0
290
     0
  0
SCALE
  5
5F
102
{ACAD_REACTORS
330
4D
102
}
330
4D
100
AcDbScale
 70
     0
300
1/128" = 1'-0"
140
0.0078125
141
12.0
290
     0
  0
SCALE
  5
60
102
{ACAD_REACTORS
330
4D
102
}
330
4D
100
AcDbScale
 70
     0
300
1/64" = 1'-0"
140
0.015625
141
12.0
290
     0
  0
SCALE
  5
61
102
{ACAD_REACTORS
330
4D
102
}
330
4D
100
AcDbScale
 70
     0
300
1/32" = 1'-0"
140
0.03125
141
12.0
290
     0
  0
SCALE
  5
62
102
{ACAD_REACTORS
330
4D
102
}
330
4D
100
AcDbScale
 70
     0
300
1/16" = 1'-0"
140
0.0625
141
12.0
290
     0
  0
SCALE
  5
63
102
{ACAD_REACTORS
330
4D
102
}
330
4D
100
AcDbScale
 70
     0
300
3/32" = 1'-0"
140
0.09375
141
12.0
290
     0
  0
SCALE
  5
64
102
{ACAD_REACTORS
330
4D
102
}
330
4D
100
AcDbScale
 70
     0
300
1/8" = 1'-0"
140
0.125
141
12.0
290
     0
  0
SCALE
  5
65
102
{ACAD_REACTORS
330
4D
102
}
330
4D
100
AcDbScale
 70
     0
300
3/16" = 1'-0"
140
0.1875
141
12.0
290
     0
  0
SCALE
  5
66
102
{ACAD_REACTORS
330
4D
102
}
330
4D
100
AcDbScale
 70
     0
300
1/4" = 1'-0"
140
0.25
141
12.0
290
     0
  0
SCALE
  5
67
102
{ACAD_REACTORS
330
4D
102
}
330
4D
100
AcDbScale
 70
     0
300
3/8" = 1'-0"
140
0.375
141
12.0
290
     0
  0
SCALE
  5
68
102
{ACAD_REACTORS
330
4D
102
}
330
4D
100
AcDbScale
 70
     0
300
1/2" = 1'-0"
140
0.5
141
12.0
290
     0
  0
SCALE
  5
69
102
{ACAD_REACTORS
330
4D
102
}
330
4D
100
AcDbScale
 70
     0
300
3/4" = 1'-0"
140
0.75
141
12.0
290
     0
  0
SCALE
  5
6A
102
{ACAD_REACTORS
330
4D
102
}
330
4D
100
AcDbScale
 70
     0
300
1" = 1'-0"
140
1.0
141
12.0
290
     0
  0
SCALE
  5
6B
102
{ACAD_REACTORS
330
4D
102
}
330
4D
100
AcDbScale
 70
     0
300
1-1/2" = 1'-0"
140
1.5
141
12.0
290
     0
  0
SCALE
  5
6C
102
{ACAD_REACTORS
330
4D
102
}
330
4D
100
AcDbScale
 70
     0
300
3" = 1'-0"
140
3.0
141
12.0
290
     0
  0
SCALE
  5
6D
102
{ACAD_REACTORS
330
4D
102
}
330
4D
100
AcDbScale
 70
     0
300
6" = 1'-0"
140
6.0
141
12.0
290
     0
  0
SCALE
  5
6E
102
{ACAD_REACTORS
330
4D
102
}
330
4D
100
AcDbScale
 70
     0
300
1'-0" = 1'-0"
140
12.0
141
12.0
290
     0
  0
VISUALSTYLE
  5
2F
102
{ACAD_REACTORS
330
2A
102
}
102
{ACAD_XDICTIONARY
360
25E
102
}
330
2A
100
AcDbVisualStyle
  2
2dWireframe
 70
     4
 71
     0
 72
     2
 73
     0
 90
        0
 40
-0.6
 41
-30.0
 62
     5
 63
     7
 74
     1
 91
        4
 64
     7
 65
   257
 75
     1
175
     1
 42
1.0
 92
        0
 66
   257
 43
1.0
 76
     1
 77
     6
 78
     2
 67
     7
 79
     5
170
     0
171
     0
290
     0
174
     0
 93
        1
 44
0.0
173
     0
291
     0
 45
0.0
1001
ACAD
1000
AcDbSavedByObjectVersion
1070
     0
  0
VISUALSTYLE
  5
31
102
{ACAD_REACTORS
330
2A
102
}
102
{ACAD_XDICTIONARY
360
262
102
}
330
2A
100
AcDbVisualStyle
  2
3D Hidden
 70
     6
 71
     1
 72
     2
 73
     2
 90
        0
 40
-0.6
 41
-30.0
 62
     5
 63
     7
 74
     2
 91
        2
 64
     7
 65
   257
 75
     2
175
     1
 42
40.0
 92
        0
 66
   257
 43
1.0
 76
     1
 77
     6
 78
     2
 67
     7
 79
     3
170
     0
171
     0
290
     0
174
     0
 93
        1
 44
0.0
173
     0
291
     0
 45
0.0
1001
ACAD
1000
AcDbSavedByObjectVersion
1070
     0
  0
VISUALSTYLE
  5
30
102
{ACAD_REACTORS
330
2A
102
}
102
{ACAD_XDICTIONARY
360
260
102
}
330
2A
100
AcDbVisualStyle
  2
3dWireframe
 70
     5
 71
     0
 72
     2
 73
     0
 90
        0
 40
-0.6
 41
-30.0
 62
     5
 63
     7
 74
     1
 91
        4
 64
     7
 65
   257
 75
     1
175
     1
 42
1.0
 92
        0
 66
   257
 43
1.0
 76
     1
 77
     6
 78
     2
 67
     7
 79
     5
170
     0
171
     0
290
     0
174
     0
 93
        1
 44
0.0
173
     0
291
     0
 45
0.0
1001
ACAD
1000
AcDbSavedByObjectVersion
1070
     0
  0
VISUALSTYLE
  5
32
102
{ACAD_REACTORS
330
2A
102
}
102
{ACAD_XDICTIONARY
360
264
102
}
330
2A
100
AcDbVisualStyle
  2
Basic
 70
     7
 71
     1
 72
     0
 73
     1
 90
        0
 40
-0.6
 41
-30.0
 62
     5
 63
     7
 74
     0
 91
        4
 64
     7
 65
   257
 75
     1
175
     1
 42
1.0
 92
        8
 66
     7
 43
1.0
 76
     1
 77
     6
 78
     2
 67
     7
 79
     5
170
     0
171
     0
290
     0
174
     0
 93
        1
 44
0.0
173
     0
291
     1
 45
0.0
1001
ACAD
1000
AcDbSavedByObjectVersion
1070
     0
  0
VISUALSTYLE
  5
36
102
{ACAD_REACTORS
330
2A
102
}
102
{ACAD_XDICTIONARY
360
26C
102
}
330
2A
100
AcDbVisualStyle
  2
Brighten
 70
    12
 71
     2
 72
     2
 73
     0
 90
        0
 40
-0.6
 41
-30.0
 62
     5
 63
     7
 74
     1
 91
        4
 64
     7
 65
   257
 75
     1
175
     1
 42
1.0
 92
        8
 66
     7
 43
1.0
 76
     1
 77
     6
 78
     2
 67
     7
 79
     5
170
     0
171
     0
290
     0
174
     0
 93
        1
 44
50.0
173
     0
291
     1
 45
0.0
1001
ACAD
1000
AcDbSavedByObjectVersion
1070
     0
  0
VISUALSTYLE
  5
3A
102
{ACAD_REACTORS
330
2A
102
}
102
{ACAD_XDICTIONARY
360
274
102
}
330
2A
100
AcDbVisualStyle
  2
ColorChange
 70
    16
 71
     2
 72
     2
 73
     3
 90
        0
 40
-0.6
 41
-30.0
 62
     5
 63
     8
 74
     1
 91
        4
 64
     7
 65
   257
 75
     1
175
     1
 42
1.0
 92
        8
 66
     8
 43
1.0
 76
     1
 77
     6
 78
     2
 67
     7
 79
     5
170
     0
171
     0
290
     0
174
     0
 93
        1
 44
0.0
173
     0
291
     1
 45
0.0
1001
ACAD
1000
AcDbSavedByObjectVersion
1070
     0
  0
VISUALSTYLE
  5
34
102
{ACAD_REACTORS
330
2A
102
}
102
{ACAD_XDICTIONARY
360
268
102
}
330
2A
100
AcDbVisualStyle
  2
Conceptual
 70
     9
 71
     3
 72
     2
 73
     0
 90
        0
 40
-0.6
 41
-30.0
 62
     5
 63
     7
 74
     2
 91
        2
 64
     7
 65
   257
 75
     1
175
     1
 42
40.0
 92
        8
 66
     7
 43
1.0
 76
     1
 77
     6
 78
     2
 67
     7
 79
     3
170
     0
171
     0
290
     0
174
     0
 93
        1
 44
0.0
173
     0
291
     0
 45
0.0
1001
ACAD
1000
AcDbSavedByObjectVersion
1070
     0
  0
VISUALSTYLE
  5
35
102
{ACAD_REACTORS
330
2A
102
}
102
{ACAD_XDICTIONARY
360
26A
102
}
330
2A
100
AcDbVisualStyle
  2
Dim
 70
    11
 71
     2
 72
     2
 73
     0
 90
        0
 40
-0.6
 41
-30.0
 62
     5
 63
     7
 74
     1
 91
        4
 64
     7
 65
   257
 75
     1
175
     1
 42
1.0
 92
        8
 66
     7
 43
1.0
 76
     1
 77
     6
 78
     2
 67
     7
 79
     5
170
     0
171
     0
290
     0
174
     0
 93
        1
 44
-50.0
173
     0
291
     1
 45
0.0
1001
ACAD
1000
AcDbSavedByObjectVersion
1070
     0
  0
VISUALSTYLE
  5
39
102
{ACAD_REACTORS
330
2A
102
}
102
{ACAD_XDICTIONARY
360
272
102
}
330
2A
100
AcDbVisualStyle
  2
Facepattern
 70
    15
 71
     2
 72
     2
 73
     0
 90
        0
 40
-0.6
 41
-30.0
 62
     5
 63
     7
 74
     1
 91
        4
 64
     7
 65
   257
 75
     1
175
     1
 42
1.0
 92
        8
 66
     7
 43
1.0
 76
     1
 77
     6
 78
     2
 67
     7
 79
     5
170
     0
171
     0
290
     0
174
     0
 93
        1
 44
0.0
173
     0
291
     1
 45
0.0
1001
ACAD
1000
AcDbSavedByObjectVersion
1070
     0
  0
VISUALSTYLE
  5
2B
102
{ACAD_REACTORS
330
2A
102
}
102
{ACAD_XDICTIONARY
360
256
102
}
330
2A
100
AcDbVisualStyle
  2
Flat
 70
     0
 71
     2
 72
     1
 73
     1
 90
        2
 40
-0.6
 41
30.0
 62
     5
 63
     7
 74
     0
 91
        4
 64
     7
 65
   257
 75
     1
175
     1
 42
1.0
 92
        8
 66
     7
 43
1.0
 76
     1
 77
     6
 78
     2
 67
     7
 79
     5
170
     0
171
     0
290
     0
174
     0
 93
       13
 44
0.0
173
     0
291
     1
 45
0.0
1001
ACAD
1000
AcDbSavedByObjectVersion
1070
     0
  0
VISUALSTYLE
  5
2C
102
{ACAD_REACTORS
330
2A
102
}
102
{ACAD_XDICTIONARY
360
258
102
}
330
2A
100
AcDbVisualStyle
  2
FlatWithEdges
 70
     1
 71
     2
 72
     1
 73
     1
 90
        2
 40
-0.6
 41
30.0
 62
     5
 63
     7
 74
     1
 91
        4
 64
     7
 65
   257
 75
     1
175
     1
 42
1.0
 92
        0
 66
   257
 43
1.0
 76
     1
 77
     6
 78
     2
 67
     7
 79
     5
170
     0
171
     0
290
     0
174
     0
 93
       13
 44
0.0
173
     0
291
     1
 45
0.0
1001
ACAD
1000
AcDbSavedByObjectVersion
1070
     0
  0
VISUALSTYLE
  5
2D
102
{ACAD_REACTORS
330
2A
102
}
102
{ACAD_XDICTIONARY
360
25A
102
}
330
2A
100
AcDbVisualStyle
  2
Gouraud
 70
     2
 71
     2
 72
     2
 73
     1
 90
        2
 40
-0.6
 41
30.0
 62
     5
 63
     7
 74
     0
 91
        4
 64
     7
 65
   257
 75
     1
175
     1
 42
1.0
 92
        0
 66
     7
 43
1.0
 76
     1
 77
     6
 78
     2
 67
     7
 79
     5
170
     0
171
     0
290
     0
174
     0
 93
       13
 44
0.0
173
     0
291
     1
 45
0.0
1001
ACAD
1000
AcDbSavedByObjectVersion
1070
     0
  0
VISUALSTYLE
  5
2E
102
{ACAD_REACTORS
330
2A
102
}
102
{ACAD_XDICTIONARY
360
25C
102
}
330
2A
100
AcDbVisualStyle
  2
GouraudWithEdges
 70
     3
 71
     2
 72
     2
 73
     1
 90
        2
 40
-0.6
 41
30.0
 62
     5
 63
     7
 74
     1
 91
        4
 64
     7
 65
   257
 75
     1
175
     1
 42
1.0
 92
        0
 66
   257
 43
1.0
 76
     1
 77
     6
 78
     2
 67
     7
 79
     5
170
     0
171
     0
290
     0
174
     0
 93
       13
 44
0.0
173
     0
291
     1
 45
0.0
1001
ACAD
1000
AcDbSavedByObjectVersion
1070
     0
  0
VISUALSTYLE
  5
38
102
{ACAD_REACTORS
330
2A
102
}
102
{ACAD_XDICTIONARY
360
270
102
}
330
2A
100
AcDbVisualStyle
  2
Linepattern
 70
    14
 71
     2
 72
     2
 73
     0
 90
        0
 40
-0.6
 41
-30.0
 62
     5
 63
     7
 74
     1
 91
        4
 64
     7
 65
   257
 75
     7
175
     7
 42
1.0
 92
        8
 66
     7
 43
1.0
 76
     1
 77
     6
 78
     2
 67
     7
 79
     5
170
     0
171
     0
290
     0
174
     0
 93
        1
 44
0.0
173
     0
291
     1
 45
0.0
1001
ACAD
1000
AcDbSavedByObjectVersion
1070
     0
  0
VISUALSTYLE
  5
33
102
{ACAD_REACTORS
330
2A
102
}
102
{ACAD_XDICTIONARY
360
266
102
}
330
2A
100
AcDbVisualStyle
  2
Realistic
 70
     8
 71
     2
 72
     2
 73
     0
 90
        0
 40
-0.6
 41
-30.0
 62
     5
 63
     7
 74
     1
 91
        0
 64
     7
 65
   257
 75
     1
175
     1
 42
1.0
 92
        8
 66
     8
 43
1.0
 76
     1
 77
     6
 78
     2
 67
     7
 79
     5
170
     0
171
     0
290
     0
174
     0
 93
       13
 44
0.0
173
     0
291
     0
 45
0.0
1001
ACAD
1000
AcDbSavedByObjectVersion
1070
     0
  0
VISUALSTYLE
  5
37
102
{ACAD_REACTORS
330
2A
102
}
102
{ACAD_XDICTIONARY
360
26E
102
}
330
2A
100
AcDbVisualStyle
  2
Thicken
 70
    13
 71
     2
 72
     2
 73
     0
 90
        0
 40
-0.6
 41
-30.0
 62
     5
 63
     7
 74
     1
 91
        4
 64
     7
 65
   257
 75
     1
175
     1
 42
1.0
 92
       12
 66
     7
 43
1.0
 76
     1
 77
     6
 78
     2
 67
     7
 79
     5
170
     0
171
     0
290
     0
174
     0
 93
        1
 44
0.0
173
     0
291
     1
 45
0.0
1001
ACAD
1000
AcDbSavedByObjectVersion
1070
     0
  0
DICTIONARYVAR
  5
253
102
{ACAD_REACTORS
330
250
102
}
330
250
100
DictionaryVariables
280
     0
  1
1:1
  0
DICTIONARYVAR
  5
254
102
{ACAD_REACTORS
330
250
102
}
330
250
100
DictionaryVariables
280
     0
  1
2
  0
DICTIONARYVAR
  5
255
102
{ACAD_REACTORS
330
250
102
}
330
250
100
DictionaryVariables
280
     0
  1
1
  0
DICTIONARY
  5
278
330
3D
100
AcDbDictionary
280
     1
281
     1
  3
ACAD_XREC_ROUNDTRIP
360
279
  0
DICTIONARY
  5
276
330
3C
100
AcDbDictionary
280
     1
281
     1
  3
ACAD_XREC_ROUNDTRIP
360
277
  0
DICTIONARY
  5
27A
330
3E
100
AcDbDictionary
280
     1
281
     1
  3
ACAD_XREC_ROUNDTRIP
360
27B
  0
DICTIONARY
  5
25E
330
2F
100
AcDbDictionary
280
     1
281
     1
  3
ACAD_XREC_ROUNDTRIP
360
25F
  0
DICTIONARY
  5
262
330
31
100
AcDbDictionary
280
     1
281
     1
  3
ACAD_XREC_ROUNDTRIP
360
263
  0
DICTIONARY
  5
260
330
30
100
AcDbDictionary
280
     1
281
     1
  3
ACAD_XREC_ROUNDTRIP
360
261
  0
DICTIONARY
  5
264
330
32
100
AcDbDictionary
280
     1
281
     1
  3
ACAD_XREC_ROUNDTRIP
360
265
  0
DICTIONARY
  5
26C
330
36
100
AcDbDictionary
280
     1
281
     1
  3
ACAD_XREC_ROUNDTRIP
360
26D
  0
DICTIONARY
  5
274
330
3A
100
AcDbDictionary
280
     1
281
     1
  3
ACAD_XREC_ROUNDTRIP
360
275
  0
DICTIONARY
  5
268
330
34
100
AcDbDictionary
280
     1
281
     1
  3
ACAD_XREC_ROUNDTRIP
360
269
  0
DICTIONARY
  5
26A
330
35
100
AcDbDictionary
280
     1
281
     1
  3
ACAD_XREC_ROUNDTRIP
360
26B
  0
DICTIONARY
  5
272
330
39
100
AcDbDictionary
280
     1
281
     1
  3
ACAD_XREC_ROUNDTRIP
360
273
  0
DICTIONARY
  5
256
330
2B
100
AcDbDictionary
280
     1
281
     1
  3
ACAD_XREC_ROUNDTRIP
360
257
  0
DICTIONARY
  5
258
330
2C
100
AcDbDictionary
280
     1
281
     1
  3
ACAD_XREC_ROUNDTRIP
360
259
  0
DICTIONARY
  5
25A
330
2D
100
AcDbDictionary
280
     1
281
     1
  3
ACAD_XREC_ROUNDTRIP
360
25B
  0
DICTIONARY
  5
25C
330
2E
100
AcDbDictionary
280
     1
281
     1
  3
ACAD_XREC_ROUNDTRIP
360
25D
  0
DICTIONARY
  5
270
330
38
100
AcDbDictionary
280
     1
281
     1
  3
ACAD_XREC_ROUNDTRIP
360
271
  0
DICTIONARY
  5
266
330
33
100
AcDbDictionary
280
     1
281
     1
  3
ACAD_XREC_ROUNDTRIP
360
267
  0
DICTIONARY
  5
26E
330
37
100
AcDbDictionary
280
     1
281
     1
  3
ACAD_XREC_ROUNDTRIP
360
26F
  0
XRECORD
  5
279
102
{ACAD_REACTORS
330
278
102
}
330
278
100
AcDbXrecord
280
     1
102
MATERIAL
148
0.0
149
0.0
149
0.0
 93
        0
 94
      127
282
     0
 72
     1
 77
     1
171
     1
175
     1
179
     1
273
     0
  0
XRECORD
  5
277
102
{ACAD_REACTORS
330
276
102
}
330
276
100
AcDbXrecord
280
     1
102
MATERIAL
148
0.0
149
0.0
149
0.0
 93
        0
 94
      127
282
     0
 72
     1
 77
     1
171
     1
175
     1
179
     1
273
     0
  0
XRECORD
  5
27B
102
{ACAD_REACTORS
330
27A
102
}
330
27A
100
AcDbXrecord
280
     1
102
MATERIAL
148
0.0
149
0.0
149
0.0
 93
        0
 94
      127
282
     0
 72
     1
 77
     1
171
     1
175
     1
179
     1
273
     0
  0
XRECORD
  5
25F
102
{ACAD_REACTORS
330
25E
102
}
330
25E
100
AcDbXrecord
280
     1
102
RTVSPropertyOp0
 70
     1
102
RTVSPropertyOp1
 70
     1
102
RTVSPropertyOp2
 70
     1
102
RTVSPropertyOp3
 70
     1
102
RTVSPropertyOp4
 70
     1
102
RTVSPropertyOp5
 70
     1
102
RTVSPropertyOp6
 70
     1
102
RTVSPropertyOp7
 70
     1
102
RTVSPropertyOp8
 70
     1
102
RTVSPropertyOp9
 70
     1
102
RTVSPropertyOp10
 70
     1
102
RTVSPropertyOp11
 70
     1
102
RTVSPropertyOp12
 70
     1
102
RTVSPropertyOp13
 70
     1
102
RTVSPropertyOp14
 70
     1
102
RTVSPropertyOp15
 70
     1
102
RTVSPropertyOp16
 70
     1
102
RTVSPropertyOp17
 70
     1
102
RTVSPropertyOp18
 70
     1
102
RTVSPropertyOp19
 70
     1
102
RTVSPropertyOp20
 70
     1
102
RTVSPropertyOp21
 70
     1
102
RTVSPropertyOp22
 70
     1
102
RTVSPropertyOp23
 70
     1
102
RTVSPropertyOp24
 70
     1
102
RTVSPropertyOp25
 70
     1
102
RTVSPropertyOp26
 70
     1
102
RTVSPropertyOp27
 70
     1
  0
XRECORD
  5
263
102
{ACAD_REACTORS
330
262
102
}
330
262
100
AcDbXrecord
280
     1
102
RTVSPropertyOp0
 70
     1
102
RTVSPropertyOp1
 70
     1
102
RTVSPropertyOp2
 70
     1
102
RTVSPropertyOp3
 70
     1
102
RTVSPropertyOp4
 70
     1
102
RTVSPropertyOp5
 70
     1
102
RTVSPropertyOp6
 70
     1
102
RTVSPropertyOp7
 70
     1
102
RTVSPropertyOp8
 70
     1
102
RTVSPropertyOp9
 70
     1
102
RTVSPropertyOp10
 70
     1
102
RTVSPropertyOp11
 70
     1
102
RTVSPropertyOp12
 70
     1
102
RTVSPropertyOp13
 70
     1
102
RTVSPropertyOp14
 70
     1
102
RTVSPropertyOp15
 70
     1
102
RTVSPropertyOp16
 70
     1
102
RTVSPropertyOp17
 70
     1
102
RTVSPropertyOp18
 70
     1
102
RTVSPropertyOp19
 70
     1
102
RTVSPropertyOp20
 70
     1
102
RTVSPropertyOp21
 70
     1
102
RTVSPropertyOp22
 70
     1
102
RTVSPropertyOp23
 70
     1
102
RTVSPropertyOp24
 70
     1
102
RTVSPropertyOp25
 70
     1
102
RTVSPropertyOp26
 70
     1
102
RTVSPropertyOp27
 70
     1
  0
XRECORD
  5
261
102
{ACAD_REACTORS
330
260
102
}
330
260
100
AcDbXrecord
280
     1
102
RTVSPropertyOp0
 70
     1
102
RTVSPropertyOp1
 70
     1
102
RTVSPropertyOp2
 70
     1
102
RTVSPropertyOp3
 70
     1
102
RTVSPropertyOp4
 70
     1
102
RTVSPropertyOp5
 70
     1
102
RTVSPropertyOp6
 70
     1
102
RTVSPropertyOp7
 70
     1
102
RTVSPropertyOp8
 70
     1
102
RTVSPropertyOp9
 70
     1
102
RTVSPropertyOp10
 70
     1
102
RTVSPropertyOp11
 70
     1
102
RTVSPropertyOp12
 70
     1
102
RTVSPropertyOp13
 70
     1
102
RTVSPropertyOp14
 70
     1
102
RTVSPropertyOp15
 70
     1
102
RTVSPropertyOp16
 70
     1
102
RTVSPropertyOp17
 70
     1
102
RTVSPropertyOp18
 70
     1
102
RTVSPropertyOp19
 70
     1
102
RTVSPropertyOp20
 70
     1
102
RTVSPropertyOp21
 70
     1
102
RTVSPropertyOp22
 70
     1
102
RTVSPropertyOp23
 70
     1
102
RTVSPropertyOp24
 70
     1
102
RTVSPropertyOp25
 70
     1
102
RTVSPropertyOp26
 70
     1
102
RTVSPropertyOp27
 70
     1
  0
XRECORD
  5
265
102
{ACAD_REACTORS
330
264
102
}
330
264
100
AcDbXrecord
280
     1
102
RTVSPropertyOp0
 70
     1
102
RTVSPropertyOp1
 70
     1
102
RTVSPropertyOp2
 70
     1
102
RTVSPropertyOp3
 70
     1
102
RTVSPropertyOp4
 70
     1
102
RTVSPropertyOp5
 70
     1
102
RTVSPropertyOp6
 70
     1
102
RTVSPropertyOp7
 70
     1
102
RTVSPropertyOp8
 70
     1
102
RTVSPropertyOp9
 70
     1
102
RTVSPropertyOp10
 70
     1
102
RTVSPropertyOp11
 70
     1
102
RTVSPropertyOp12
 70
     1
102
RTVSPropertyOp13
 70
     1
102
RTVSPropertyOp14
 70
     1
102
RTVSPropertyOp15
 70
     1
102
RTVSPropertyOp16
 70
     1
102
RTVSPropertyOp17
 70
     1
102
RTVSPropertyOp18
 70
     1
102
RTVSPropertyOp19
 70
     1
102
RTVSPropertyOp20
 70
     1
102
RTVSPropertyOp21
 70
     1
102
RTVSPropertyOp22
 70
     1
102
RTVSPropertyOp23
 70
     1
102
RTVSPropertyOp24
 70
     1
102
RTVSPropertyOp25
 70
     1
102
RTVSPropertyOp26
 70
     1
102
RTVSPropertyOp27
 70
     1
  0
XRECORD
  5
26D
102
{ACAD_REACTORS
330
26C
102
}
330
26C
100
AcDbXrecord
280
     1
102
RTVSPropertyOp0
 70
     1
102
RTVSPropertyOp1
 70
     1
102
RTVSPropertyOp2
 70
     1
102
RTVSPropertyOp3
 70
     1
102
RTVSPropertyOp4
 70
     1
102
RTVSPropertyOp5
 70
     1
102
RTVSPropertyOp6
 70
     1
102
RTVSPropertyOp7
 70
     1
102
RTVSPropertyOp8
 70
     1
102
RTVSPropertyOp9
 70
     1
102
RTVSPropertyOp10
 70
     1
102
RTVSPropertyOp11
 70
     1
102
RTVSPropertyOp12
 70
     1
102
RTVSPropertyOp13
 70
     1
102
RTVSPropertyOp14
 70
     1
102
RTVSPropertyOp15
 70
     1
102
RTVSPropertyOp16
 70
     1
102
RTVSPropertyOp17
 70
     1
102
RTVSPropertyOp18
 70
     1
102
RTVSPropertyOp19
 70
     1
102
RTVSPropertyOp20
 70
     1
102
RTVSPropertyOp21
 70
     1
102
RTVSPropertyOp22
 70
     1
102
RTVSPropertyOp23
 70
     1
102
RTVSPropertyOp24
 70
     1
102
RTVSPropertyOp25
 70
     1
102
RTVSPropertyOp26
 70
     1
102
RTVSPropertyOp27
 70
     1
  0
XRECORD
  5
275
102
{ACAD_REACTORS
330
274
102
}
330
274
100
AcDbXrecord
280
     1
102
RTVSPropertyOp0
 70
     1
102
RTVSPropertyOp1
 70
     1
102
RTVSPropertyOp2
 70
     1
102
RTVSPropertyOp3
 70
     1
102
RTVSPropertyOp4
 70
     1
102
RTVSPropertyOp5
 70
     1
102
RTVSPropertyOp6
 70
     1
102
RTVSPropertyOp7
 70
     1
102
RTVSPropertyOp8
 70
     1
102
RTVSPropertyOp9
 70
     1
102
RTVSPropertyOp10
 70
     1
102
RTVSPropertyOp11
 70
     1
102
RTVSPropertyOp12
 70
     1
102
RTVSPropertyOp13
 70
     1
102
RTVSPropertyOp14
 70
     1
102
RTVSPropertyOp15
 70
     1
102
RTVSPropertyOp16
 70
     1
102
RTVSPropertyOp17
 70
     1
102
RTVSPropertyOp18
 70
     1
102
RTVSPropertyOp19
 70
     1
102
RTVSPropertyOp20
 70
     1
102
RTVSPropertyOp21
 70
     1
102
RTVSPropertyOp22
 70
     1
102
RTVSPropertyOp23
 70
     1
102
RTVSPropertyOp24
 70
     1
102
RTVSPropertyOp25
 70
     1
102
RTVSPropertyOp26
 70
     1
102
RTVSPropertyOp27
 70
     1
  0
XRECORD
  5
269
102
{ACAD_REACTORS
330
268
102
}
330
268
100
AcDbXrecord
280
     1
102
RTVSPropertyOp0
 70
     1
102
RTVSPropertyOp1
 70
     1
102
RTVSPropertyOp2
 70
     1
102
RTVSPropertyOp3
 70
     1
102
RTVSPropertyOp4
 70
     1
102
RTVSPropertyOp5
 70
     1
102
RTVSPropertyOp6
 70
     1
102
RTVSPropertyOp7
 70
     1
102
RTVSPropertyOp8
 70
     1
102
RTVSPropertyOp9
 70
     1
102
RTVSPropertyOp10
 70
     1
102
RTVSPropertyOp11
 70
     1
102
RTVSPropertyOp12
 70
     1
102
RTVSPropertyOp13
 70
     1
102
RTVSPropertyOp14
 70
     1
102
RTVSPropertyOp15
 70
     1
102
RTVSPropertyOp16
 70
     1
102
RTVSPropertyOp17
 70
     1
102
RTVSPropertyOp18
 70
     1
102
RTVSPropertyOp19
 70
     1
102
RTVSPropertyOp20
 70
     1
102
RTVSPropertyOp21
 70
     1
102
RTVSPropertyOp22
 70
     1
102
RTVSPropertyOp23
 70
     1
102
RTVSPropertyOp24
 70
     1
102
RTVSPropertyOp25
 70
     1
102
RTVSPropertyOp26
 70
     1
102
RTVSPropertyOp27
 70
     1
  0
XRECORD
  5
26B
102
{ACAD_REACTORS
330
26A
102
}
330
26A
100
AcDbXrecord
280
     1
102
RTVSPropertyOp0
 70
     1
102
RTVSPropertyOp1
 70
     1
102
RTVSPropertyOp2
 70
     1
102
RTVSPropertyOp3
 70
     1
102
RTVSPropertyOp4
 70
     1
102
RTVSPropertyOp5
 70
     1
102
RTVSPropertyOp6
 70
     1
102
RTVSPropertyOp7
 70
     1
102
RTVSPropertyOp8
 70
     1
102
RTVSPropertyOp9
 70
     1
102
RTVSPropertyOp10
 70
     1
102
RTVSPropertyOp11
 70
     1
102
RTVSPropertyOp12
 70
     1
102
RTVSPropertyOp13
 70
     1
102
RTVSPropertyOp14
 70
     1
102
RTVSPropertyOp15
 70
     1
102
RTVSPropertyOp16
 70
     1
102
RTVSPropertyOp17
 70
     1
102
RTVSPropertyOp18
 70
     1
102
RTVSPropertyOp19
 70
     1
102
RTVSPropertyOp20
 70
     1
102
RTVSPropertyOp21
 70
     1
102
RTVSPropertyOp22
 70
     1
102
RTVSPropertyOp23
 70
     1
102
RTVSPropertyOp24
 70
     1
102
RTVSPropertyOp25
 70
     1
102
RTVSPropertyOp26
 70
     1
102
RTVSPropertyOp27
 70
     1
  0
XRECORD
  5
273
102
{ACAD_REACTORS
330
272
102
}
330
272
100
AcDbXrecord
280
     1
102
RTVSPropertyOp0
 70
     1
102
RTVSPropertyOp1
 70
     1
102
RTVSPropertyOp2
 70
     1
102
RTVSPropertyOp3
 70
     1
102
RTVSPropertyOp4
 70
     1
102
RTVSPropertyOp5
 70
     1
102
RTVSPropertyOp6
 70
     1
102
RTVSPropertyOp7
 70
     1
102
RTVSPropertyOp8
 70
     1
102
RTVSPropertyOp9
 70
     1
102
RTVSPropertyOp10
 70
     1
102
RTVSPropertyOp11
 70
     1
102
RTVSPropertyOp12
 70
     1
102
RTVSPropertyOp13
 70
     1
102
RTVSPropertyOp14
 70
     1
102
RTVSPropertyOp15
 70
     1
102
RTVSPropertyOp16
 70
     1
102
RTVSPropertyOp17
 70
     1
102
RTVSPropertyOp18
 70
     1
102
RTVSPropertyOp19
 70
     1
102
RTVSPropertyOp20
 70
     1
102
RTVSPropertyOp21
 70
     1
102
RTVSPropertyOp22
 70
     1
102
RTVSPropertyOp23
 70
     1
102
RTVSPropertyOp24
 70
     1
102
RTVSPropertyOp25
 70
     1
102
RTVSPropertyOp26
 70
     1
102
RTVSPropertyOp27
 70
     1
  0
XRECORD
  5
257
102
{ACAD_REACTORS
330
256
102
}
330
256
100
AcDbXrecord
280
     1
102
RTVSPropertyOp0
 70
     1
102
RTVSPropertyOp1
 70
     1
102
RTVSPropertyOp2
 70
     1
102
RTVSPropertyOp3
 70
     1
102
RTVSPropertyOp4
 70
     1
102
RTVSPropertyOp5
 70
     1
102
RTVSPropertyOp6
 70
     1
102
RTVSPropertyOp7
 70
     1
102
RTVSPropertyOp8
 70
     1
102
RTVSPropertyOp9
 70
     1
102
RTVSPropertyOp10
 70
     1
102
RTVSPropertyOp11
 70
     1
102
RTVSPropertyOp12
 70
     1
102
RTVSPropertyOp13
 70
     1
102
RTVSPropertyOp14
 70
     1
102
RTVSPropertyOp15
 70
     1
102
RTVSPropertyOp16
 70
     1
102
RTVSPropertyOp17
 70
     1
102
RTVSPropertyOp18
 70
     1
102
RTVSPropertyOp19
 70
     1
102
RTVSPropertyOp20
 70
     1
102
RTVSPropertyOp21
 70
     1
102
RTVSPropertyOp22
 70
     1
102
RTVSPropertyOp23
 70
     1
102
RTVSPropertyOp24
 70
     1
102
RTVSPropertyOp25
 70
     1
102
RTVSPropertyOp26
 70
     1
102
RTVSPropertyOp27
 70
     1
  0
XRECORD
  5
259
102
{ACAD_REACTORS
330
258
102
}
330
258
100
AcDbXrecord
280
     1
102
RTVSPropertyOp0
 70
     1
102
RTVSPropertyOp1
 70
     1
102
RTVSPropertyOp2
 70
     1
102
RTVSPropertyOp3
 70
     1
102
RTVSPropertyOp4
 70
     1
102
RTVSPropertyOp5
 70
     1
102
RTVSPropertyOp6
 70
     1
102
RTVSPropertyOp7
 70
     1
102
RTVSPropertyOp8
 70
     1
102
RTVSPropertyOp9
 70
     1
102
RTVSPropertyOp10
 70
     1
102
RTVSPropertyOp11
 70
     1
102
RTVSPropertyOp12
 70
     1
102
RTVSPropertyOp13
 70
     1
102
RTVSPropertyOp14
 70
     1
102
RTVSPropertyOp15
 70
     1
102
RTVSPropertyOp16
 70
     1
102
RTVSPropertyOp17
 70
     1
102
RTVSPropertyOp18
 70
     1
102
RTVSPropertyOp19
 70
     1
102
RTVSPropertyOp20
 70
     1
102
RTVSPropertyOp21
 70
     1
102
RTVSPropertyOp22
 70
     1
102
RTVSPropertyOp23
 70
     1
102
RTVSPropertyOp24
 70
     1
102
RTVSPropertyOp25
 70
     1
102
RTVSPropertyOp26
 70
     1
102
RTVSPropertyOp27
 70
     1
  0
XRECORD
  5
25B
102
{ACAD_REACTORS
330
25A
102
}
330
25A
100
AcDbXrecord
280
     1
102
RTVSPropertyOp0
 70
     1
102
RTVSPropertyOp1
 70
     1
102
RTVSPropertyOp2
 70
     1
102
RTVSPropertyOp3
 70
     1
102
RTVSPropertyOp4
 70
     1
102
RTVSPropertyOp5
 70
     1
102
RTVSPropertyOp6
 70
     1
102
RTVSPropertyOp7
 70
     1
102
RTVSPropertyOp8
 70
     1
102
RTVSPropertyOp9
 70
     1
102
RTVSPropertyOp10
 70
     1
102
RTVSPropertyOp11
 70
     1
102
RTVSPropertyOp12
 70
     1
102
RTVSPropertyOp13
 70
     1
102
RTVSPropertyOp14
 70
     1
102
RTVSPropertyOp15
 70
     1
102
RTVSPropertyOp16
 70
     1
102
RTVSPropertyOp17
 70
     1
102
RTVSPropertyOp18
 70
     1
102
RTVSPropertyOp19
 70
     1
102
RTVSPropertyOp20
 70
     1
102
RTVSPropertyOp21
 70
     1
102
RTVSPropertyOp22
 70
     1
102
RTVSPropertyOp23
 70
     1
102
RTVSPropertyOp24
 70
     1
102
RTVSPropertyOp25
 70
     1
102
RTVSPropertyOp26
 70
     1
102
RTVSPropertyOp27
 70
     1
  0
XRECORD
  5
25D
102
{ACAD_REACTORS
330
25C
102
}
330
25C
100
AcDbXrecord
280
     1
102
RTVSPropertyOp0
 70
     1
102
RTVSPropertyOp1
 70
     1
102
RTVSPropertyOp2
 70
     1
102
RTVSPropertyOp3
 70
     1
102
RTVSPropertyOp4
 70
     1
102
RTVSPropertyOp5
 70
     1
102
RTVSPropertyOp6
 70
     1
102
RTVSPropertyOp7
 70
     1
102
RTVSPropertyOp8
 70
     1
102
RTVSPropertyOp9
 70
     1
102
RTVSPropertyOp10
 70
     1
102
RTVSPropertyOp11
 70
     1
102
RTVSPropertyOp12
 70
     1
102
RTVSPropertyOp13
 70
     1
102
RTVSPropertyOp14
 70
     1
102
RTVSPropertyOp15
 70
     1
102
RTVSPropertyOp16
 70
     1
102
RTVSPropertyOp17
 70
     1
102
RTVSPropertyOp18
 70
     1
102
RTVSPropertyOp19
 70
     1
102
RTVSPropertyOp20
 70
     1
102
RTVSPropertyOp21
 70
     1
102
RTVSPropertyOp22
 70
     1
102
RTVSPropertyOp23
 70
     1
102
RTVSPropertyOp24
 70
     1
102
RTVSPropertyOp25
 70
     1
102
RTVSPropertyOp26
 70
     1
102
RTVSPropertyOp27
 70
     1
  0
XRECORD
  5
271
102
{ACAD_REACTORS
330
270
102
}
330
270
100
AcDbXrecord
280
     1
102
RTVSPropertyOp0
 70
     1
102
RTVSPropertyOp1
 70
     1
102
RTVSPropertyOp2
 70
     1
102
RTVSPropertyOp3
 70
     1
102
RTVSPropertyOp4
 70
     1
102
RTVSPropertyOp5
 70
     1
102
RTVSPropertyOp6
 70
     1
102
RTVSPropertyOp7
 70
     1
102
RTVSPropertyOp8
 70
     1
102
RTVSPropertyOp9
 70
     1
102
RTVSPropertyOp10
 70
     1
102
RTVSPropertyOp11
 70
     1
102
RTVSPropertyOp12
 70
     1
102
RTVSPropertyOp13
 70
     1
102
RTVSPropertyOp14
 70
     1
102
RTVSPropertyOp15
 70
     1
102
RTVSPropertyOp16
 70
     1
102
RTVSPropertyOp17
 70
     1
102
RTVSPropertyOp18
 70
     1
102
RTVSPropertyOp19
 70
     1
102
RTVSPropertyOp20
 70
     1
102
RTVSPropertyOp21
 70
     1
102
RTVSPropertyOp22
 70
     1
102
RTVSPropertyOp23
 70
     1
102
RTVSPropertyOp24
 70
     1
102
RTVSPropertyOp25
 70
     1
102
RTVSPropertyOp26
 70
     1
102
RTVSPropertyOp27
 70
     1
  0
XRECORD
  5
267
102
{ACAD_REACTORS
330
266
102
}
330
266
100
AcDbXrecord
280
     1
102
RTVSPropertyOp0
 70
     1
102
RTVSPropertyOp1
 70
     1
102
RTVSPropertyOp2
 70
     1
102
RTVSPropertyOp3
 70
     1
102
RTVSPropertyOp4
 70
     1
102
RTVSPropertyOp5
 70
     1
102
RTVSPropertyOp6
 70
     1
102
RTVSPropertyOp7
 70
     1
102
RTVSPropertyOp8
 70
     1
102
RTVSPropertyOp9
 70
     1
102
RTVSPropertyOp10
 70
     1
102
RTVSPropertyOp11
 70
     1
102
RTVSPropertyOp12
 70
     1
102
RTVSPropertyOp13
 70
     1
102
RTVSPropertyOp14
 70
     1
102
RTVSPropertyOp15
 70
     1
102
RTVSPropertyOp16
 70
     1
102
RTVSPropertyOp17
 70
     1
102
RTVSPropertyOp18
 70
     1
102
RTVSPropertyOp19
 70
     1
102
RTVSPropertyOp20
 70
     1
102
RTVSPropertyOp21
 70
     1
102
RTVSPropertyOp22
 70
     1
102
RTVSPropertyOp23
 70
     1
102
RTVSPropertyOp24
 70
     1
102
RTVSPropertyOp25
 70
     1
102
RTVSPropertyOp26
 70
     1
102
RTVSPropertyOp27
 70
     1
  0
XRECORD
  5
26F
102
{ACAD_REACTORS
330
26E
102
}
330
26E
100
AcDbXrecord
280
     1
102
RTVSPropertyOp0
 70
     1
102
RTVSPropertyOp1
 70
     1
102
RTVSPropertyOp2
 70
     1
102
RTVSPropertyOp3
 70
     1
102
RTVSPropertyOp4
 70
     1
102
RTVSPropertyOp5
 70
     1
102
RTVSPropertyOp6
 70
     1
102
RTVSPropertyOp7
 70
     1
102
RTVSPropertyOp8
 70
     1
102
RTVSPropertyOp9
 70
     1
102
RTVSPropertyOp10
 70
     1
102
RTVSPropertyOp11
 70
     1
102
RTVSPropertyOp12
 70
     1
102
RTVSPropertyOp13
 70
     1
102
RTVSPropertyOp14
 70
     1
102
RTVSPropertyOp15
 70
     1
102
RTVSPropertyOp16
 70
     1
102
RTVSPropertyOp17
 70
     1
102
RTVSPropertyOp18
 70
     1
102
RTVSPropertyOp19
 70
     1
102
RTVSPropertyOp20
 70
     1
102
RTVSPropertyOp21
 70
     1
102
RTVSPropertyOp22
 70
     1
102
RTVSPropertyOp23
 70
     1
102
RTVSPropertyOp24
 70
     1
102
RTVSPropertyOp25
 70
     1
102
RTVSPropertyOp26
 70
     1
102
RTVSPropertyOp27
 70
     1
  0
ENDSEC
  0
EOF
